View RSS Feed

FiNE

The Raid: Redemption (2012) 720p HDRip 800MB Ganool

Rating: 2 votes, 5.00 average.
1b2e3d192413405.jpg

Single link
Code:
http://glumbouploads.com/f3dgkcln2isb
free user speed limit 400kB

Submit "The Raid: Redemption (2012) 720p HDRip 800MB Ganool" to Facebook Submit "The Raid: Redemption (2012) 720p HDRip 800MB Ganool" to Google Submit "The Raid: Redemption (2012) 720p HDRip 800MB Ganool" to del.icio.us Submit "The Raid: Redemption (2012) 720p HDRip 800MB Ganool" to Digg Submit "The Raid: Redemption (2012) 720p HDRip 800MB Ganool" to Twitter

Categories
Uncategorized

Comments

  1. Robyoby's Avatar
    The Raid: Redemption (2012) 720p HDRip 800MB Agoes@Ganool
    Mediafire N single Link
    Download :Disini
  2. viola's Avatar
    The Raid Redemption (2012) HDRip XviD - (700 MB)


    Download : DISINI
  3. viola's Avatar
    The Raid Redemption (2011) ENGSUBBED HDRip XViD

    Download : DISINI
  4. angelpazcal's Avatar
    itu kenapa hardsub korea... T.T gk ngmg....
  5. taqiyuddin's Avatar
    knp kok gtu gan
  6. viola's Avatar
    Source :
    Quote:www.imdb.com/title/tt1899353/

    File size : 700 MiB
    Duration : 1h 40mn
    Overall bit rate mode : Variable
    Overall bit rate : 972 Kbps
    Writing application : VirtualDubMod 1.5.4.1 (build 2178/release)
    Writing library : VirtualDubMod build 2178/release

    Video
    ID : 0
    Format : MPEG-4 Visual
    Format profile : Advanced Simple@L5
    Format settings, BVOP : 1
    Format settings, QPel : No
    Format settings, GMC : No warppoints
    Format settings, Matrix : Custom
    Codec ID : XVID
    Codec ID/Hint : XviD
    Duration : 1h 40mn
    Bit rate : 847 Kbps
    Width : 640 pixels
    Height : 272 pixels
    Display aspect ratio : 2.35:1
    Frame rate : 25.000 fps
    Color space : YUV
    Chroma subsampling : 4:2:0
    Bit depth : 8 bits
    Scan type : Progressive
    Compression mode : Lossy
    Bits/(Pixel*Frame) : 0.195
    Stream size : 610 MiB (87%)
    Writing library : XviD 1.2.1 (UTC 2008-12-04)

    Audio
    ID : 1
    Format : MPEG Audio
    Format version : Version 1
    Format profile : Layer 3
    Mode : Joint stereo
    Mode extension : MS Stereo
    Codec ID : 55
    Codec ID/Hint : MP3
    Duration : 1h 40mn
    Bit rate mode : Variable
    Bit rate : 112 Kbps
    Nominal bit rate : 128 Kbps
    Channel(s) : 2 channels
    Sampling rate : 48.0 KHz
    Compression mode : Lossy
    Stream size : 80.8 MiB (12%)
    Alignment : Aligned on interleaves
    Interleave, duration : 24 ms (0.60 video frame)
    Interleave, preload duration : 164 ms
    Writing library : LAME3.98r
    Encoding settings : -m j -V 4 -q 2 -lowpass 17 --abr 128
    Language : English
  7. cetul26's Avatar
    lokalin dong. yg di mediafire dihapus trus
  8. julmonz's Avatar
    susah bener DL ny
  9. wahyusan666's Avatar
    yg hdrip itu emang kebanyakan teks korea ... heheheheh !!!
  10. adi_kwangsoo's Avatar
    mampir sini gan... udah ane upload di
  11. whitezholic's Avatar
    linknya mati gan
  12. seira218's Avatar
    Quote Originally Posted by adi_kwangsoo
    mampir sini gan... udah ane upload di

    ini HD quality gan??
Indowebster is proudly powered by PT. Gudang Data Indonesia