Page 119 of 497 FirstFirst ... 1969109115116117118119120121122123129169219 ... LastLast
Results 1,181 to 1,190 of 4970

Thread: [Archive] HD Collection | Link Lokal ONLY | Part II
http://idws.in/178115

  1. #1181

    Join Date
    Jul 2010
    Location
    Musi River
    Posts
    140
    Thank(s)
    2/1,449
    Rep Power
    0

    Default

    Quote Originally Posted by Thinl View Post
    Captain America The First Avenger (2011) 1080p BluRay x264-MaxHD
    ssetelah melalui perjuangan yang panjang donload akhirnya selesai juga meski harus diulang ulang dan gonta ganti page bahkan sampe kedonload double part wkwkwk..anyway udah ditonton lancar thank's brother...

  2. Who Said Thanks:


  3. #1182

    Join Date
    May 2011
    Location
    bit.ly/pTD432
    Posts
    187
    Thank(s)
    0/91
    Rep Power
    0

    Default

    Quote Originally Posted by Thinl View Post
    Captain America The First Avenger (2011) 1080p BluRay x264-MaxHD
    finally kelar juga.. setelah tambal sulam dr hal 95 + 99

    thx thinl sudah uplod. keep up the good work..



    Quote Originally Posted by Semplice View Post
    sizenya bener ko..dari sourcenya emang sgitu

    soundnya masih AC3...makanya sizenya kecil
    gw juga udh donlot.. tp bagus jg koq buat nonton di laptop ato ipad..

    pake IEM.. lumayan banget.. thx juga bro semplice..

  4. #1183

    Join Date
    Jun 2008
    Location
    Indonesia
    Posts
    96
    Thank(s)
    1/3,461
    Rep Power
    0

    Default

    @Thinl :

    kk Film Letters From Iwo Jima part 2,3,6 Storage maintenance trus nih..bisa tolong reupload ga??

  5. Who Said Thanks:


  6. #1184

    Join Date
    Jul 2011
    Location
    dimana saja
    Posts
    1,262
    Thank(s)
    2/61,355
    Rep Power
    4

    Default

    Quote Originally Posted by Semplice View Post
    The.Hunt.For.Red.October.1990.1080p.BluRay.DTS.x26 4-CtrlHD
    # Sudah direupload

  7. Who Said Thanks:


  8. #1185

    Join Date
    Jul 2011
    Location
    dimana saja
    Posts
    1,262
    Thank(s)
    284/61,355
    Rep Power
    4

    Default

    The.Italian.Job.2003.1080p.BluRay


    Show INFO

    Code:
    General
    Unique ID                        : 184753878029892932597749648818593992500 (0x8AFE4D7773BA32A7ACFDA729914A0F34)
    Complete name                    : The.Italian.Job.2003.1080p.mkv
    Format                           : Matroska
    File size                        : 7.94 GiB
    Duration                         : 1h 50mn
    Overall bit rate                 : 10.3 Mbps
    Movie name                       : Shadowlord
    Encoded date                     : UTC 2009-10-13 01:52:54
    Writing application              : mkvmerge v2.9.8 ('C'est le bon') built on Aug 13 2009 12:49:06
    Writing library                  : libebml v0.7.7 + libmatroska v0.8.1
    
    Video
    ID                               : 1
    Format                           : AVC
    Format/Info                      : Advanced Video Codec
    Format profile                   : High@L5.1
    Format settings, CABAC           : Yes
    Format settings, ReFrames        : 8 frames
    Codec ID                         : V_MPEG4/ISO/AVC
    Duration                         : 1h 50mn
    Bit rate                         : 8 781 Kbps
    Width                            : 1 920 pixels
    Height                           : 800 pixels
    Display aspect ratio             : 2.40:1
    Frame rate                       : 23.976 fps
    Color space                      : YUV
    Chroma subsampling               : 4:2:0
    Bit depth                        : 8 bits
    Scan type                        : Progressive
    Bits/(Pixel*Frame)               : 0.238
    Stream size                      : 6.62 GiB (83%)
    Title                            : The Italian Job
    Writing library                  : x264 core 55 svn-661C
    Encoding settings                : cabac=1 / ref=5 / deblock=1:-3:-3 / analyse=0x3:0x133 / me=umh / subme=7 / brdo=1 / mixed_ref=1 / me_range=16 / 
    
    chroma_me=1 / trellis=1 / 8x8dct=1 / cqm=2 / deadzone=21,11 / chroma_qp_offset=0 / threads=3 / nr=0 / decimate=1 / mbaff=0 / bframes=3 / b_pyramid=1 / 
    
    b_adapt=1 / b_bias=0 / direct=3 / wpredb=1 / bime=1 / keyint=250 / keyint_min=25 / scenecut=40(pre) / rc=2pass / bitrate=8781 / ratetol=1.0 / 
    
    rceq='blurCplx^(1-qComp)' / qcomp=0.60 / qpmin=10 / qpmax=51 / qpstep=4 / cplxblur=20.0 / qblur=0.5 / ip_ratio=1.40 / pb_ratio=1.30 / aq=1:0.3:15.0
    Language                         : English
    
    Audio
    ID                               : 2
    Format                           : DTS
    Format/Info                      : Digital Theater Systems
    Codec ID                         : A_DTS
    Duration                         : 1h 50mn
    Bit rate mode                    : Constant
    Bit rate                         : 1 510 Kbps
    Channel(s)                       : 6 channels
    Channel positions                : Front: L C R, Side: L R, LFE
    Sampling rate                    : 48.0 KHz
    Bit depth                        : 24 bits
    Compression mode                 : Lossy
    Stream size                      : 1.17 GiB (15%)
    Title                            : InglÚs DTS 5.1
    Language                         : English
    
    Text
    ID                               : 3
    Format                           : UTF-8
    Codec ID                         : S_TEXT/UTF8
    Codec ID/Info                    : UTF-8 Plain Text



    You must click 'Thank You' before you can see the data contained here.
    You do not have sufficient rights to see the hidden data contained here.


    Code:
    * Download semua file dan join dengan HJSplit

  9. Who Said Thanks:

    There are too many to display.

  10. #1186

    Join Date
    Jul 2011
    Location
    Anoa Island
    Posts
    52
    Thank(s)
    1/20
    Rep Power
    0

    Default

    Quote Originally Posted by Chloe_Moretz View Post
    Harry.Potter.And.The.Deathly.Hallows.Part.1.1080p. BluRay.x264-TWiZTED.mkv
    Part 21 dan 22 koq NOT FOUND yah bro? Tlg reupload donk...
    Last edited by admiral_akainu; 20-10-2011 at 09:27 PM.

  11. Who Said Thanks:


  12. #1187

    Join Date
    Sep 2009
    Location
    semarang
    Posts
    10
    Thank(s)
    0/6
    Rep Power
    0

    Default

    Buat juragan semua, aku minta tolong Re-Upload "Lord of the Ring Fellowship of the Ring -Extended- 1080p"
    part 31, 32, 33, 34, 35 donk...
    Dah aku tunggu 3 harian ini kok server maintenance terus nih...
    tinggal itu aja yg belum aku download..
    Aku PM ke mbahedan gak bisa nerima PM, overload katanya
    please Re-Upload ya gan....
    Makasih...

  13. #1188

    Join Date
    May 2011
    Location
    RSJD SMG
    Posts
    723
    Thank(s)
    0/389
    Rep Power
    4

    Default

    Lapor gan

    Film Battle of Terra 1080p uploader agan Zutara link donlod part C sampe F not found

    Mohon kebijakannya. Thanx before.

  14. #1189

    Join Date
    Apr 2010
    Location
    Earth
    Posts
    89
    Thank(s)
    0/1,195
    Rep Power
    0

    Default

    this is too hardcore...
    awesome

  15. #1190

    Join Date
    Aug 2010
    Location
    Jakarta
    Posts
    31
    Thank(s)
    0/21
    Rep Power
    0

    Default

    Quote Originally Posted by Thinl View Post
    page 95 atau 99?
    Page 99 om

Page 119 of 497 FirstFirst ... 1969109115116117118119120121122123129169219 ... LastLast

Bookmarks

Posting Permissions

  • You may not post new threads
  • You may not post replies
  • You may not post attachments
  • You may not edit your posts
  •  
Indowebster is proudly powered by PT. Gudang Data Indonesia