Page 130 of 499 FirstFirst ... 3080120126127128129130131132133134140180230 ... LastLast
Results 1,291 to 1,300 of 4981

Thread: [Archive] HD Collection | Link Lokal ONLY | Part II
http://idws.in/178115

  1. #1291

    Join Date
    Dec 2008
    Location
    rumah kontrakan
    Posts
    48
    Thank(s)
    0/542
    Rep Power
    0

    Default

    Quote Originally Posted by Nattacker View Post
    [CENTER]Trespass [2011][LIMITED][720p][BluRay][x264][AMIABLE]


    Lg sepi uploadan baru... jadi ane upload pake maknyos karena IDWS lagi suka error... Skalian nanya.. mending gw split 500MB? ato 1GBan? kalo no response, ane terusin 500mban.

    Jangan lupa....
    & ----
    1 gb aja bro, kagak bolak balik klik. :)

    Quote Originally Posted by Nattacker View Post
    [CENTER]X [2011][720p][BluRay][x264][MELiTE]
    keren cover nya doank nih film...
    Last edited by AnthraX; 25-10-2011 at 09:44 PM.

  2. #1292

    Join Date
    Aug 2009
    Location
    indonesia
    Posts
    100
    Thank(s)
    0/10
    Rep Power
    0

    Default

    kk Thinl, kok Let Me In nya part 6 sm 9 nya gabisa ya?
    apa emg gangguan server nya?

    http://www.indowebster.web.id/showth...=1#post8452603

  3. #1293

    Join Date
    Jan 2011
    Location
    Depok Timur
    Posts
    22
    Thank(s)
    0/29
    Rep Power
    0

    Default

    Quote Originally Posted by Semplice View Post
    Super.8.2011.BluRay.1080p.x264.DTS-HDChina
    Bro part 7 nya knp sizenya cuma 93 Mb ya?
    apa ada yg salah?

  4. #1294

    Join Date
    Jul 2011
    Location
    dimana saja
    Posts
    1,260
    Thank(s)
    0/59,452
    Rep Power
    3

    Default

    Quote Originally Posted by stutEnak View Post
    Bro part 7 nya knp sizenya cuma 93 Mb ya?
    apa ada yg salah?
    trakhir dicoba tadi pagi size-nya masih bener smua
    kmungkinan ada sesuatu di idws..mungkin besok bisa dicoba lagi

  5. #1295

    Join Date
    Jul 2011
    Location
    dimana saja
    Posts
    1,260
    Thank(s)
    86/59,452
    Rep Power
    3

    Default

    The.Son.of.No.One.2011.720p.BluRay.x264-MHD


    Show INFO

    Code:
    General
    Unique ID                        : 208752316405410208371332770265047720939 (0x9D0C3BD495BAAA1890F5A06159E763EB)
    Complete name                    : The.Son.of.No.One.2011.720p.BluRay.x264-MHD.mkv
    Format                           : Matroska
    File size                        : 4.36 GiB
    Duration                         : 1h 33mn
    Overall bit rate                 : 6 658 Kbps
    Encoded date                     : UTC 2011-10-24 04:42:32
    Writing application              : mkvmerge v5.0.0 ('Die Wahre Liebe') built on Sep 25 2011 20:33:49
    Writing library                  : libebml v1.2.2 + libmatroska v1.3.0
    
    Video
    ID                               : 1
    Format                           : AVC
    Format/Info                      : Advanced Video Codec
    Format profile                   : High@L4.1
    Format settings, CABAC           : Yes
    Format settings, ReFrames        : 5 frames
    Codec ID                         : V_MPEG4/ISO/AVC
    Duration                         : 1h 33mn
    Bit rate                         : 5 150 Kbps
    Width                            : 1 280 pixels
    Height                           : 544 pixels
    Display aspect ratio             : 2.35:1
    Frame rate                       : 23.976 fps
    Color space                      : YUV
    Chroma subsampling               : 4:2:0
    Bit depth                        : 8 bits
    Scan type                        : Progressive
    Bits/(Pixel*Frame)               : 0.308
    Stream size                      : 3.29 GiB (75%)
    Writing library                  : x264 core 116 r2057 0ba8a9c
    Encoding settings                : cabac=1 / ref=5 / deblock=1:0:0 / analyse=0x3:0x113 / me=umh / subme=7 / psy=1 / psy_rd=1.00:0.15 / mixed_ref=1 / 
    
    me_range=16 / chroma_me=1 / trellis=1 / 8x8dct=1 / cqm=0 / deadzone=21,11 / fast_pskip=0 / chroma_qp_offset=-3 / threads=6 / sliced_threads=0 / nr=0 / 
    
    decimate=1 / interlaced=0 / bluray_compat=0 / constrained_intra=0 / bframes=3 / b_pyramid=2 / b_adapt=1 / b_bias=0 / direct=1 / weightb=1 / open_gop=0 / 
    
    weightp=2 / keyint=250 / keyint_min=23 / scenecut=40 / intra_refresh=0 / rc_lookahead=40 / rc=2pass / mbtree=1 / bitrate=5150 / ratetol=1.0 / qcomp=0.60 / 
    
    qpmin=0 / qpmax=69 / qpstep=4 / cplxblur=20.0 / qblur=0.5 / ip_ratio=1.40 / aq=1:1.00
    Language                         : English
    
    Audio
    ID                               : 2
    Format                           : DTS
    Format/Info                      : Digital Theater Systems
    Codec ID                         : A_DTS
    Duration                         : 1h 33mn
    Bit rate mode                    : Constant
    Bit rate                         : 1 510 Kbps
    Channel(s)                       : 6 channels
    Channel positions                : Front: L C R, Side: L R, LFE
    Sampling rate                    : 48.0 KHz
    Bit depth                        : 24 bits
    Compression mode                 : Lossy
    Stream size                      : 1 013 MiB (23%)
    Language                         : English



    You must click 'Thank You' before you can see the data contained here.
    You do not have sufficient rights to see the hidden data contained here.


    Code:
    * Download semua file dan join dengan HJSplit

  6. Who Said Thanks:

    There are too many to display.

  7. #1296

    Join Date
    Dec 2008
    Location
    Jakarta
    Posts
    83
    Thank(s)
    0/381
    Rep Power
    0

    Default

    Quote Originally Posted by stutEnak View Post
    Bro part 7 nya knp sizenya cuma 93 Mb ya?
    apa ada yg salah?
    ah yang bener gan... di ane masih 2gb tuh.. jadi deg2an jg nih klo tiba2 errot ditengah jalan

    btw... gan semplice ato sis cloe, klo sempet mirrorin ke idws donk crazy stupid love nya.. pake maknyos malah suka error klo di ane.. he he he.. itu jg klo kalian sempet

  8. #1297

    Join Date
    Dec 2009
    Location
    Depok
    Posts
    33
    Thank(s)
    0/8
    Rep Power
    0

    Default

    Constantine | 2005 | 4.37Gb by mbahedan
    part 2 sama part 5 nya storage maintenance, kira2 ada back up nya gak???

  9. #1298

    Join Date
    Jun 2010
    Location
    Jakarta
    Posts
    76
    Thank(s)
    0/134
    Rep Power
    0

    Default

    Quote Originally Posted by Semplice View Post
    Super.8.2011.BluRay.1080p.x264.DTS-HDChina
    lg download ini..

    koq part 7 nya 93MB ya bro?

  10. #1299

    Join Date
    Oct 2009
    Location
    Jakarta
    Posts
    350
    Thank(s)
    0/22,917
    Rep Power
    0

    Default

    Quote Originally Posted by deep891 View Post
    duh rango yg 720p extended yg part 17 sampe part 21 ga bisa d download nih,,, servernya lagi down atau gmn y???

    gmn nih solusinya???
    ntr gw reupload dari awal.. gw ngk punya file yg original nya lagi :-/

  11. #1300

    Join Date
    Feb 2009
    Location
    jakarta
    Posts
    25
    Thank(s)
    0/3
    Rep Power
    0

    Default

    Quote Originally Posted by Lakuci View Post
    Agan smarty, film Husk (2011) http://www.indowebster.web.id/showth...=1#post9228210
    kok part 7nya tombol download IDWSnya jadi "storage maintenance, please comeback later" terus ya dr kmrn2.
    Tinggal part 7 nih yg ane blm donlod
    Ada pencerahan ga?
    yg ini ada pencerahan ga ya?

Page 130 of 499 FirstFirst ... 3080120126127128129130131132133134140180230 ... LastLast

Bookmarks

Posting Permissions

  • You may not post new threads
  • You may not post replies
  • You may not post attachments
  • You may not edit your posts
  •  
Indowebster is proudly powered by PT. Gudang Data Indonesia