Page 14 of 499 FirstFirst ... 41011121314151617182464114 ... LastLast
Results 131 to 140 of 4981

Thread: [Archive] HD Collection | Link Lokal ONLY | Part II
http://idws.in/178115

  1. #131

    Join Date
    Mar 2010
    Location
    Bandung
    Posts
    872
    Thank(s)
    1/1,009
    Rep Power
    5

    Default

    Quote Originally Posted by widhi88 View Post
    Twilight (2008) 1080p yang part 32 waktu di download kok jadi nya file raw ya, uda di unlocker di rename jg ga bisa...

    ada solusi ga? soalnya download ulang tetep raw hasilnya
    Kalo di komputer Anda terinstall software ACDSee, komputer memang akan mengenali ekstension *.032 sebagai file RAW, entah apa maksudnya. Tapi itu nggak masalah kok, saya juga sering begitu untuk film yang part-nya lebih dari 30 part. Pas di join pake HJ-Split nggak masalah kok, semua file ter-join dengan baik. Coba aja di-join dulu, ada masalah nggak?

  2. Who Said Thanks:


  3. #132

    Join Date
    Apr 2009
    Location
    Earth
    Posts
    28,619
    Thank(s)
    132/154,176
    Blog Entries
    2
    Rep Power
    47

    Default

    Mirror [2008][1080p]

    Show INFO
    Code:
    General
    Unique ID                        : 203593953817170711511469300623440693274 (0x992AC4EB4AB4189D8B13A4A63A09481A)
    Complete name                    : G:\HD Movie 4\Mirrors 1080p\Mirrors.mkv
    Format                           : Matroska
    File size                        : 7.49 GiB
    Duration                         : 1h 51mn
    Overall bit rate                 : 9 627 Kbps
    Encoded date                     : UTC 2009-01-21 22:15:55
    Writing application              : mkvmerge v2.4.1 ('Use Me') built on Dec  5 2008 18:30:05
    Writing library                  : libebml v0.7.7 + libmatroska v0.8.1
    
    Video
    ID                               : 1
    Format                           : AVC
    Format/Info                      : Advanced Video Codec
    Format profile                   : High@L4.1
    Format settings, CABAC           : Yes
    Format settings, ReFrames        : 3 frames
    Codec ID                         : V_MPEG4/ISO/AVC
    Duration                         : 1h 51mn
    Bit rate                         : 8 874 Kbps
    Width                            : 1 920 pixels
    Height                           : 1 080 pixels
    Display aspect ratio             : 16:9
    Frame rate                       : 23.976 fps
    Color space                      : YUV
    Chroma subsampling               : 4:2:0
    Bit depth                        : 8 bits
    Scan type                        : Progressive
    Bits/(Pixel*Frame)               : 0.178
    Stream size                      : 6.75 GiB (90%)
    Writing library                  : x264 core 65 r1080 56e9183
    Encoding settings                : cabac=1 / ref=3 / deblock=1:0:0 / analyse=0x3:0x113 / me=umh / subme=8 / psy_rd=1.0:0.0 / mixed_ref=1 / me_range=16 / chroma_me=1 / trellis=1 / 8x8dct=1 / cqm=0 / deadzone=12,8 / chroma_qp_offset=-2 / threads=6 / nr=0 / decimate=1 / mbaff=0 / bframes=3 / b_pyramid=1 / b_adapt=1 / b_bias=0 / direct=3 / wpredb=1 / keyint=250 / keyint_min=25 / scenecut=40(pre) / rc=2pass / bitrate=8874 / ratetol=1.0 / qcomp=0.60 / qpmin=10 / qpmax=51 / qpstep=4 / cplxblur=20.0 / qblur=0.5 / vbv_maxrate=16000 / vbv_bufsize=22000 / ip_ratio=1.40 / pb_ratio=1.30 / aq=1:1.00
    Language                         : English
    
    Audio
    ID                               : 2
    Format                           : DTS
    Format/Info                      : Digital Theater Systems
    Codec ID                         : A_DTS
    Duration                         : 1h 51mn
    Bit rate mode                    : Constant
    Bit rate                         : 755 Kbps
    Channel(s)                       : 6 channels
    Channel positions                : Front: L C R, Side: L R, LFE
    Sampling rate                    : 48.0 KHz
    Bit depth                        : 24 bits
    Compression mode                 : Lossy
    Stream size                      : 601 MiB (8%)
    
    

    Show DOWNLOAD

    Code:
    SILAHKAN DIBACA DAHULU
    Download semua file. Join dengan HJSplit
    Untuk tanya masalah server IDWS silahkan ke SINI
    Cek Checksum pakai exactfile
    Bingung cara checksum? Bisa di cek disini
    
    Kalo ada masalah silahkan lapor via PM atau VM
    
    You must click 'Thank You' before you can see the data contained here.
    You do not have sufficient rights to see the hidden data contained here.

  4. Who Said Thanks:

    There are too many to display.

  5. #133

    Join Date
    Oct 2009
    Location
    jakarta
    Posts
    32
    Thank(s)
    2/4
    Rep Power
    0

    Default

    Bro smarty "The Green Hornet (2011) 720p BluRay" kagak bisa donlot part 9 pesannya "server maintenace, back later" udah seminggu di tunggu tetap gitu.. pliz help

  6. Who Said Thanks:


  7. #134

    Join Date
    Apr 2009
    Location
    Earth
    Posts
    28,619
    Thank(s)
    125/154,176
    Blog Entries
    2
    Rep Power
    47

    Default

    Mirrors 2 (2010) 720p-CHD

    Show INFO
    Code:
    General
    Unique ID                        : 247270621974340792045117515184777853414 (0xBA0696EAF6BF5C9E978CEABB0BF9F9E6)
    Complete name                    : G:\HD Movie 4\Mirrors 2 (2010) 720p-CHD\Mirrors 2 (2010) Bluray 720p DTS-CHD.mkv
    Format                           : Matroska
    File size                        : 4.36 GiB
    Duration                         : 1h 30mn
    Overall bit rate                 : 6 924 Kbps
    Encoded date                     : UTC 2010-10-19 04:48:11
    Writing application              : mkvmerge v3.2.0 ('Beginnings') 编译于 Feb 12 2010 16:46:17
    Writing library                  : libebml v0.7.9 + libmatroska v0.8.1
    
    Video
    ID                               : 1
    Format                           : AVC
    Format/Info                      : Advanced Video Codec
    Format profile                   : High@L4.1
    Format settings, CABAC           : Yes
    Format settings, ReFrames        : 8 frames
    Codec ID                         : V_MPEG4/ISO/AVC
    Duration                         : 1h 30mn
    Bit rate                         : 5 417 Kbps
    Width                            : 1 280 pixels
    Height                           : 720 pixels
    Display aspect ratio             : 16:9
    Frame rate                       : 23.976 fps
    Color space                      : YUV
    Chroma subsampling               : 4:2:0
    Bit depth                        : 8 bits
    Scan type                        : Progressive
    Bits/(Pixel*Frame)               : 0.245
    Stream size                      : 3.32 GiB (76%)
    Title                            : Mirrors.2.2010.Bluray.720p.DTS.x264-CHD
    Writing library                  : x264 core 84 r1416 fcf70c2
    Encoding settings                : cabac=1 / ref=8 / deblock=1:-3:-3 / analyse=0x3:0x113 / me=umh / subme=10 / psy=1 / psy_rd=1.0:0.1 / mixed_ref=1 / me_range=32 / chroma_me=1 / trellis=2 / 8x8dct=1 / cqm=2 / deadzone=21,11 / fast_pskip=0 / chroma_qp_offset=-2 / threads=6 / sliced_threads=0 / nr=0 / decimate=1 / mbaff=0 / constrained_intra=0 / bframes=6 / b_pyramid=2 / b_adapt=2 / b_bias=0 / direct=3 / wpredb=1 / wpredp=2 / keyint=250 / keyint_min=25 / scenecut=40 / intra_refresh=0 / rc_lookahead=40 / rc=2pass / mbtree=1 / bitrate=5417 / ratetol=1.0 / qcomp=0.60 / qpmin=10 / qpmax=51 / qpstep=4 / cplxblur=20.0 / qblur=0.5 / vbv_maxrate=50000 / vbv_bufsize=50000 / ip_ratio=1.40 / aq=1:0.80
    Language                         : English
    
    Audio
    ID                               : 2
    Format                           : DTS
    Format/Info                      : Digital Theater Systems
    Codec ID                         : A_DTS
    Duration                         : 1h 30mn
    Bit rate mode                    : Constant
    Bit rate                         : 1 510 Kbps
    Channel(s)                       : 6 channels
    Channel positions                : Front: L C R, Side: L R, LFE
    Sampling rate                    : 48.0 KHz
    Bit depth                        : 24 bits
    Compression mode                 : Lossy
    Stream size                      : 974 MiB (22%)
    Title                            : Mirrors.2.2010.DTS-HD.MA Core_1509kbps
    Language                         : English
    
    

    Show DOWNLOAD

    Code:
    SILAHKAN DIBACA DAHULU
    Download semua file. Join dengan HJSplit
    Untuk tanya masalah server IDWS silahkan ke SINI
    Cek Checksum pakai exactfile
    Bingung cara checksum? Bisa di cek disini
    
    Kalo ada masalah silahkan lapor via PM atau VM
    
    You must click 'Thank You' before you can see the data contained here.
    You do not have sufficient rights to see the hidden data contained here.

  8. Who Said Thanks:

    There are too many to display.

  9. #135

    Join Date
    May 2009
    Location
    WonderLand
    Posts
    12,962
    Thank(s)
    481/3,232,938
    Blog Entries
    4
    Rep Power
    19

    Arrow

    Thor.2011.720p.BluRay.x264-Felony



    Quote Originally Posted by Information
    Thor.2011.720p.BluRay.x264-Felony

    Name/Year..: Thor (2011)
    Theatre....: 08 May 2011

    http://www.imdb.com/title/tt0800369/

    Release....: 26 August 2011
    Retail.....: 08 September 2011
    Source.....: R1 1080p BluRay
    Length.....: 115 minutes
    Video......: x264 720p @ 5293 kbps
    Audio......: AC3 5.1 DTS / 1509 kbps
    Rating.....: 7.4/10 (64,327 votes)
    Genre......: Action | Adventure | Fantasy
    Screens....: $437,077,239 (USA) (14 August 2011) (3,955 Screens)
    Show SS



    Show Download Link


    950MB/part
    You must click 'Thank You' before you can see the data contained here.
    You do not have sufficient rights to see the hidden data contained here.


  10. Who Said Thanks:

    There are too many to display.

  11. #136

    Join Date
    Apr 2009
    Location
    Earth
    Posts
    28,619
    Thank(s)
    871/154,176
    Blog Entries
    2
    Rep Power
    47

    Default

    Thor [2011] [720p]

    Show INFO
    Code:
    General
    Unique ID                        : 219100123787628087339709726605233368712 (0xA4D5261FC326642E9EA5570C8E602E88)
    Complete name                    : F:\Download\Downloads\Compressed\thor-cardman\f-thor.720.mkv
    Format                           : Matroska
    File size                        : 5.46 GiB
    Duration                         : 1h 54mn
    Overall bit rate                 : 6 804 Kbps
    Encoded date                     : UTC 2011-08-25 11:24:01
    Writing application              : mkvmerge v4.0.0 ('The Stars were mine') built on Jun  6 2010 16:18:42
    Writing library                  : libebml v1.0.0 + libmatroska v1.0.0
    
    Video
    ID                               : 1
    Format                           : AVC
    Format/Info                      : Advanced Video Codec
    Format profile                   : High@L4.1
    Format settings, CABAC           : Yes
    Format settings, ReFrames        : 5 frames
    Codec ID                         : V_MPEG4/ISO/AVC
    Duration                         : 1h 54mn
    Bit rate                         : 5 293 Kbps
    Width                            : 1 280 pixels
    Height                           : 544 pixels
    Display aspect ratio             : 2.35:1
    Frame rate                       : 23.976 fps
    Color space                      : YUV
    Chroma subsampling               : 4:2:0
    Bit depth                        : 8 bits
    Scan type                        : Progressive
    Bits/(Pixel*Frame)               : 0.317
    Stream size                      : 4.14 GiB (76%)
    Writing library                  : x264 core 116 r2074 2641b9e
    Encoding settings                : cabac=1 / ref=5 / deblock=1:0:0 / analyse=0x3:0x133 / me=umh / subme=8 / psy=1 / psy_rd=1.00:0.00 / mixed_ref=1 / me_range=16 / chroma_me=1 / trellis=1 / 8x8dct=1 / cqm=0 / deadzone=21,11 / fast_pskip=0 / chroma_qp_offset=-2 / threads=18 / sliced_threads=0 / nr=0 / decimate=1 / interlaced=0 / bluray_compat=0 / constrained_intra=0 / bframes=3 / b_pyramid=2 / b_adapt=1 / b_bias=0 / direct=1 / weightb=1 / open_gop=0 / weightp=2 / keyint=240 / keyint_min=24 / scenecut=40 / intra_refresh=0 / rc_lookahead=40 / rc=2pass / mbtree=1 / bitrate=5293 / ratetol=1.0 / qcomp=0.60 / qpmin=0 / qpmax=69 / qpstep=4 / cplxblur=20.0 / qblur=0.5 / ip_ratio=1.40 / aq=1:1.00
    Language                         : English
    
    Audio
    ID                               : 2
    Format                           : DTS
    Format/Info                      : Digital Theater Systems
    Format profile                   : ES
    Codec ID                         : A_DTS
    Duration                         : 1h 54mn
    Bit rate mode                    : Constant
    Bit rate                         : 1 510 Kbps
    Channel(s)                       : 6 channels
    Channel positions                : Front: L C R, Side: L R, LFE
    Sampling rate                    : 48.0 KHz
    Bit depth                        : 24 bits
    Compression mode                 : Lossy
    Stream size                      : 1.21 GiB (22%)
    Title                            : English
    Language                         : English
    
    Text
    ID                               : 3
    Format                           : UTF-8
    Codec ID                         : S_TEXT/UTF8
    Codec ID/Info                    : UTF-8 Plain Text
    Title                            : English
    Language                         : English
    
    
    

    Show DOWNLOAD

    Code:
    SILAHKAN DIBACA DAHULU
    Download semua file. Join dengan HJSplit
    Untuk tanya masalah server IDWS silahkan ke SINI
    Cek Checksum pakai exactfile
    Bingung cara checksum? Bisa di cek disini
    
    Kalo ada masalah silahkan lapor via PM atau VM
    
    
    You must click 'Thank You' before you can see the data contained here.
    You do not have sufficient rights to see the hidden data contained here.
    Last edited by Thinl; 04-09-2011 at 04:33 PM.

  12. Who Said Thanks:

    There are too many to display.

  13. #137

    Join Date
    Jul 2011
    Location
    dimana saja
    Posts
    1,262
    Thank(s)
    1,054/61,177
    Rep Power
    4

    Default

    Thor.2011.1080p.BluRay.x264-SECTOR7


    Show INFO

    Code:
    General
    Unique ID                        : 232472571769351467663299110112142723875 (0xAEE496B67AFDD5F08DBAAD7CF7DA8B23)
    Complete name                    : s7-thor.1080.mkv
    Format                           : Matroska
    File size                        : 7.64 GiB
    Duration                         : 1h 54mn
    Overall bit rate                 : 9 529 Kbps
    Encoded date                     : UTC 2011-08-25 21:59:34
    Writing application              : mkvmerge v4.0.0 ('The Stars were mine') built on Jun  6 2010 16:18:42
    Writing library                  : libebml v1.0.0 + libmatroska v1.0.0
    
    Video
    ID                               : 1
    Format                           : AVC
    Format/Info                      : Advanced Video Codec
    Format profile                   : High@L4.1
    Format settings, CABAC           : Yes
    Format settings, ReFrames        : 5 frames
    Codec ID                         : V_MPEG4/ISO/AVC
    Duration                         : 1h 54mn
    Bit rate                         : 8 020 Kbps
    Width                            : 1 920 pixels
    Height                           : 816 pixels
    Display aspect ratio             : 2.35:1
    Frame rate                       : 23.976 fps
    Color space                      : YUV
    Chroma subsampling               : 4:2:0
    Bit depth                        : 8 bits
    Scan type                        : Progressive
    Bits/(Pixel*Frame)               : 0.214
    Stream size                      : 6.28 GiB (82%)
    Writing library                  : x264 core 116 r2074 2641b9e
    Encoding settings                : cabac=1 / ref=5 / deblock=1:0:0 / analyse=0x3:0x133 / me=umh / subme=8 / psy=1 / psy_rd=1.00:0.00 / mixed_ref=1 / 
    
    me_range=16 / chroma_me=1 / trellis=1 / 8x8dct=1 / cqm=0 / deadzone=21,11 / fast_pskip=0 / chroma_qp_offset=-2 / threads=18 / sliced_threads=0 / nr=0 / 
    
    decimate=1 / interlaced=0 / bluray_compat=0 / constrained_intra=0 / bframes=3 / b_pyramid=2 / b_adapt=1 / b_bias=0 / direct=1 / weightb=1 / open_gop=0 / 
    
    weightp=2 / keyint=240 / keyint_min=24 / scenecut=40 / intra_refresh=0 / rc_lookahead=40 / rc=2pass / mbtree=1 / bitrate=8020 / ratetol=1.0 / qcomp=0.60 / 
    
    qpmin=0 / qpmax=69 / qpstep=4 / cplxblur=20.0 / qblur=0.5 / ip_ratio=1.40 / aq=1:1.00
    Language                         : English
    
    Audio
    ID                               : 2
    Format                           : DTS
    Format/Info                      : Digital Theater Systems
    Format profile                   : ES
    Codec ID                         : A_DTS
    Duration                         : 1h 54mn
    Bit rate mode                    : Constant
    Bit rate                         : 1 510 Kbps
    Channel(s)                       : 6 channels
    Channel positions                : Front: L C R, Side: L R, LFE
    Sampling rate                    : 48.0 KHz
    Bit depth                        : 24 bits
    Compression mode                 : Lossy
    Stream size                      : 1.21 GiB (16%)
    Title                            : english
    Language                         : English
    
    Text
    ID                               : 3
    Format                           : UTF-8
    Codec ID                         : S_TEXT/UTF8
    Codec ID/Info                    : UTF-8 Plain Text
    Title                            : english
    Language                         : English



    You must click 'Thank You' before you can see the data contained here.
    You do not have sufficient rights to see the hidden data contained here.


    Code:
    * Download semua file dan join dengan HJSplit
    Last edited by Semplice; 21-09-2011 at 10:22 AM. Reason: reupload

  14. Who Said Thanks:

    There are too many to display.

  15. #138

    Join Date
    Apr 2009
    Location
    Earth
    Posts
    28,619
    Thank(s)
    135/154,176
    Blog Entries
    2
    Rep Power
    47

    Default

    Blue Streak (1999) 1080p

    Show INFO
    Code:
    General
    Unique ID                        : 171843029259552450476373659521921268175 (0x8147C379E1BC7428A8DB4860B23F39CF)
    Complete name                    : F:\HD Movie 3\Blue Streak (1999) 1080p\Blue Streak (1999).mkv
    Format                           : Matroska
    File size                        : 7.93 GiB
    Duration                         : 1h 34mn
    Overall bit rate                 : 12.1 Mbps
    Encoded date                     : UTC 2009-07-11 12:21:15
    Writing application              : mkvmerge v2.9.7 ('Tenderness') built on Jul  1 2009 18:43:35
    Writing library                  : libebml v0.7.7 + libmatroska v0.8.1
    
    Video
    ID                               : 1
    Format                           : AVC
    Format/Info                      : Advanced Video Codec
    Format profile                   : High@L4.1
    Format settings, CABAC           : Yes
    Format settings, ReFrames        : 4 frames
    Codec ID                         : V_MPEG4/ISO/AVC
    Duration                         : 1h 34mn
    Bit rate                         : 11.4 Mbps
    Width                            : 1 920 pixels
    Height                           : 1 040 pixels
    Display aspect ratio             : 16:9
    Frame rate                       : 23.976 fps
    Color space                      : YUV
    Chroma subsampling               : 4:2:0
    Bit depth                        : 8 bits
    Scan type                        : Progressive
    Bits/(Pixel*Frame)               : 0.239
    Stream size                      : 7.36 GiB (93%)
    Writing library                  : x264 core 68 r1179M 96e2229
    Encoding settings                : cabac=1 / ref=4 / deblock=1:0:0 / analyse=0x3:0x133 / me=umh / subme=7 / psy_rd=1.0:0.0 / mixed_ref=1 / me_range=16 / chroma_me=1 / trellis=1 / 8x8dct=1 / cqm=0 / deadzone=21,11 / chroma_qp_offset=-2 / threads=3 / nr=0 / decimate=0 / mbaff=0 / bframes=3 / b_pyramid=1 / b_adapt=1 / b_bias=0 / direct=1 / wpredb=1 / keyint=250 / keyint_min=25 / scenecut=40 / rc=2pass / bitrate=11429 / ratetol=1.0 / qcomp=0.60 / qpmin=10 / qpmax=51 / qpstep=4 / cplxblur=20.0 / qblur=0.5 / ip_ratio=1.40 / pb_ratio=1.30 / aq=1:1.00
    Language                         : English
    
    Audio
    ID                               : 2
    Format                           : AC-3
    Format/Info                      : Audio Coding 3
    Mode extension                   : CM (complete main)
    Codec ID                         : A_AC3
    Duration                         : 1h 34mn
    Bit rate mode                    : Constant
    Bit rate                         : 640 Kbps
    Channel(s)                       : 6 channels
    Channel positions                : Front: L C R, Side: L R, LFE
    Sampling rate                    : 48.0 KHz
    Bit depth                        : 16 bits
    Compression mode                 : Lossy
    Stream size                      : 431 MiB (5%)
    Title                            : English
    Language                         : English
    
    Text #1
    ID                               : 3
    Format                           : UTF-8
    Codec ID                         : S_TEXT/UTF8
    Codec ID/Info                    : UTF-8 Plain Text
    Title                            : Czech
    Language                         : Czech
    
    Text #2
    ID                               : 4
    Format                           : UTF-8
    Codec ID                         : S_TEXT/UTF8
    Codec ID/Info                    : UTF-8 Plain Text
    Title                            : Danish
    Language                         : Danish
    
    Text #3
    ID                               : 5
    Format                           : UTF-8
    Codec ID                         : S_TEXT/UTF8
    Codec ID/Info                    : UTF-8 Plain Text
    Title                            : English
    Language                         : English
    
    Text #4
    ID                               : 6
    Format                           : UTF-8
    Codec ID                         : S_TEXT/UTF8
    Codec ID/Info                    : UTF-8 Plain Text
    Title                            : Estonian
    Language                         : Estonian
    
    Text #5
    ID                               : 7
    Format                           : UTF-8
    Codec ID                         : S_TEXT/UTF8
    Codec ID/Info                    : UTF-8 Plain Text
    Title                            : Finnish
    Language                         : Finnish
    
    Text #6
    ID                               : 8
    Format                           : UTF-8
    Codec ID                         : S_TEXT/UTF8
    Codec ID/Info                    : UTF-8 Plain Text
    Title                            : Icelandic
    Language                         : Icelandic
    
    Text #7
    ID                               : 9
    Format                           : UTF-8
    Codec ID                         : S_TEXT/UTF8
    Codec ID/Info                    : UTF-8 Plain Text
    Title                            : Italian
    Language                         : Italian
    
    Text #8
    ID                               : 10
    Format                           : UTF-8
    Codec ID                         : S_TEXT/UTF8
    Codec ID/Info                    : UTF-8 Plain Text
    Title                            : Norway
    Language                         : Norwegian
    
    Text #9
    ID                               : 11
    Format                           : UTF-8
    Codec ID                         : S_TEXT/UTF8
    Codec ID/Info                    : UTF-8 Plain Text
    Title                            : Polish
    Language                         : Polish
    
    Text #10
    ID                               : 12
    Format                           : UTF-8
    Codec ID                         : S_TEXT/UTF8
    Codec ID/Info                    : UTF-8 Plain Text
    Title                            : Romanian
    Language                         : Romanian
    
    Text #11
    ID                               : 13
    Format                           : UTF-8
    Codec ID                         : S_TEXT/UTF8
    Codec ID/Info                    : UTF-8 Plain Text
    Title                            : Slovenian
    Language                         : Slovenian
    
    Text #12
    ID                               : 14
    Format                           : UTF-8
    Codec ID                         : S_TEXT/UTF8
    Codec ID/Info                    : UTF-8 Plain Text
    Title                            : Swedish
    Language                         : Swedish
    
    Text #13
    ID                               : 15
    Format                           : UTF-8
    Codec ID                         : S_TEXT/UTF8
    Codec ID/Info                    : UTF-8 Plain Text
    Title                            : Turkish
    Language                         : Turkish
    
    Text #14
    ID                               : 16
    Format                           : UTF-8
    Codec ID                         : S_TEXT/UTF8
    Codec ID/Info                    : UTF-8 Plain Text
    Title                            : Vietnamese
    Language                         : Vietnamese
    
    

    Show DOWNLOAD

    Code:
    SILAHKAN DIBACA DAHULU
    Download semua file. Join dengan HJSplit
    Untuk tanya masalah server IDWS silahkan ke SINI
    Cek Checksum pakai exactfile
    Bingung cara checksum? Bisa di cek disini
    
    Kalo ada masalah silahkan lapor via PM atau VM
    
    
    You must click 'Thank You' before you can see the data contained here.
    You do not have sufficient rights to see the hidden data contained here.

  16. Who Said Thanks:

    There are too many to display.

  17. #139

    Join Date
    Jul 2011
    Location
    dimana saja
    Posts
    1,262
    Thank(s)
    105/61,177
    Rep Power
    4

    Default

    The.5th.Quarter.2010.LIMITED.720p.BluRay.x264-PSYCHD


    Show INFO

    Code:
    General
    Complete name                    : the.5th.quarter.2010.limited.720p.bluray.x264-psychd.mkv
    Format                           : Matroska
    File size                        : 4.37 GiB
    Duration                         : 1h 29mn
    Overall bit rate                 : 6 976 Kbps
    Writing application              : x264.exe
    Writing library                  : mkv2rls v1.4 (date: 2011 mar 29)
    
    Video
    ID                               : 1
    Format                           : AVC
    Format/Info                      : Advanced Video Codec
    Format profile                   : High@L4.1
    Format settings, CABAC           : Yes
    Format settings, ReFrames        : 5 frames
    Format settings, GOP             : M=1, N=48
    Codec ID                         : V_MPEG4/ISO/AVC
    Duration                         : 1h 29mn
    Bit rate                         : 5 468 Kbps
    Width                            : 1 280 pixels
    Height                           : 696 pixels
    Display aspect ratio             : 16:9
    Frame rate                       : 23.976 fps
    Color space                      : YUV
    Chroma subsampling               : 4:2:0
    Bit depth                        : 8 bits
    Scan type                        : Progressive
    Bits/(Pixel*Frame)               : 0.256
    Stream size                      : 3.34 GiB (76%)
    Writing library                  : x264 core 116 r2057 0ba8a9c
    Encoding settings                : cabac=1 / ref=5 / deblock=1:0:0 / analyse=0x3:0x113 / me=umh / subme=8 / psy=1 / psy_rd=1.00:0.00 / mixed_ref=1 / 
    
    me_range=16 / chroma_me=1 / trellis=1 / 8x8dct=1 / cqm=0 / deadzone=21,11 / fast_pskip=1 / chroma_qp_offset=-2 / threads=12 / sliced_threads=0 / nr=0 / 
    
    decimate=1 / interlaced=0 / bluray_compat=0 / constrained_intra=0 / bframes=3 / b_pyramid=2 / b_adapt=2 / b_bias=0 / direct=3 / weightb=1 / open_gop=0 / 
    
    weightp=2 / keyint=240 / keyint_min=24 / scenecut=40 / intra_refresh=0 / rc_lookahead=50 / rc=2pass / mbtree=1 / bitrate=5468 / ratetol=1.0 / qcomp=0.60 / 
    
    qpmin=0 / qpmax=69 / qpstep=4 / cplxblur=20.0 / qblur=0.5 / ip_ratio=1.40 / aq=1:1.00
    Language                         : English
    
    Audio
    ID                               : 2
    Format                           : DTS
    Format/Info                      : Digital Theater Systems
    Codec ID                         : A_DTS
    Duration                         : 1h 29mn
    Bit rate mode                    : Constant
    Bit rate                         : 1 510 Kbps
    Channel(s)                       : 6 channels
    Channel positions                : Front: L C R, Side: L R, LFE
    Sampling rate                    : 48.0 KHz
    Bit depth                        : 24 bits
    Compression mode                 : Lossy
    Stream size                      : 968 MiB (22%)
    Language                         : English
    
    Text
    ID                               : 3
    Format                           : UTF-8
    Codec ID                         : S_TEXT/UTF8
    Codec ID/Info                    : UTF-8 Plain Text
    Language                         : English
    
    Menu
    00:00:00.000                     : en:00:00:00.000
    00:01:45.314                     : en:00:01:45.314
    00:06:25.093                     : en:00:06:25.093
    00:11:43.745                     : en:00:11:43.745
    00:13:59.839                     : en:00:13:59.839
    00:19:39.845                     : en:00:19:39.845
    00:25:08.173                     : en:00:25:08.173
    00:30:16.064                     : en:00:30:16.064
    00:32:08.051                     : en:00:32:08.051
    00:35:47.395                     : en:00:35:47.395
    00:38:09.954                     : en:00:38:09.954
    00:41:50.091                     : en:00:41:50.091
    00:44:48.728                     : en:00:44:48.728
    00:51:04.687                     : en:00:51:04.687
    00:53:40.634                     : en:00:53:40.634
    00:57:01.877                     : en:00:57:01.877
    00:59:45.874                     : en:00:59:45.874
    01:05:09.948                     : en:01:05:09.948
    01:08:37.238                     : en:01:08:37.238
    01:13:13.347                     : en:01:13:13.347
    01:15:02.081                     : en:01:15:02.081
    01:19:04.281                     : en:01:19:04.281
    01:22:12.594                     : en:01:22:12.594
    01:25:31.376                     : en:01:25:31.376



    You must click 'Thank You' before you can see the data contained here.
    You do not have sufficient rights to see the hidden data contained here.


    Code:
    * Download semua file dan join dengan HJSplit
    Last edited by Semplice; 17-09-2011 at 02:12 PM. Reason: reupload

  18. Who Said Thanks:

    There are too many to display.

  19. #140

    Join Date
    Apr 2011
    Location
    surabaya
    Posts
    1
    Thank(s)
    0/0
    Rep Power
    0

    Default

    bos kok yang :Pirates.Of.The.Caribbean.On.Stranger.Tides.2011.7 20p.BRRip.XviD.AC3-ViSiON smp tengah2 rusak ya filenya, jdi ngulang dr awal gt

Page 14 of 499 FirstFirst ... 41011121314151617182464114 ... LastLast

Bookmarks

Posting Permissions

  • You may not post new threads
  • You may not post replies
  • You may not post attachments
  • You may not edit your posts
  •  
Indowebster is proudly powered by PT. Gudang Data Indonesia