Page 143 of 499 FirstFirst ... 4393133139140141142143144145146147153193243 ... LastLast
Results 1,421 to 1,430 of 4981

Thread: [Archive] HD Collection | Link Lokal ONLY | Part II
http://idws.in/178115

  1. #1421

    Join Date
    Nov 2008
    Location
    river city
    Posts
    26
    Thank(s)
    0/3
    Rep Power
    0

    Default

    Quote Originally Posted by Thinl View Post
    silahkan cek di : http://usenethelp.codeccorner.com/WinRar.html

    uda di checksum belum part2nya sebelum di join?
    rusaknya kyk gini nih om..
    Show rusak

    kl di checksum sih ga ada error loh
    Show checksum


  2. #1422

    Join Date
    Oct 2008
    Location
    Indonesia
    Posts
    373
    Thank(s)
    0/262
    Rep Power
    0

    Default

    Quote Originally Posted by kycha View Post
    Super 8 (2011) 720p BluRay x264-WiKi
    extract done..uda play sekilas..lancar..thx..ditunggu film2 baru.. larry crowne

  3. #1423

    Join Date
    May 2011
    Location
    bit.ly/pTD432
    Posts
    187
    Thank(s)
    0/91
    Rep Power
    0

    Default

    Quote Originally Posted by opr3k View Post
    Belum ada link idws-nya ya Gan ?
    film apa? bnyk yg linknya idws gan..
    sblm sm uploader n ts dibilang: emang disini paranormal..
    mending diedit

  4. #1424

    Join Date
    Oct 2009
    Location
    Front of my PC
    Posts
    249
    Thank(s)
    265/6,450
    Rep Power
    0

    Default

    -== Back to the Future Part 1 ==-







    -= Download =-
    5 Parts @489 MB
    Total: 2.18GB





    You must click 'Thank You' before you can see the data contained here.
    You do not have sufficient rights to see the hidden data contained here.

    ENGLISH SUBTITLE


    Last edited by SmilefortheLife; 01-11-2011 at 05:29 AM.

  5. Who Said Thanks:

    There are too many to display.

  6. #1425

    Join Date
    Oct 2009
    Location
    Front of my PC
    Posts
    249
    Thank(s)
    118/6,450
    Rep Power
    0

    Default

    -== Back to the Future Part 2 ==-







    -= Download =-
    5 Parts @489 MB
    Total: 2.18GB





    You must click 'Thank You' before you can see the data contained here.
    You do not have sufficient rights to see the hidden data contained here.

    ENGLISH SUBTITLE


    Last edited by SmilefortheLife; 01-11-2011 at 05:30 AM.

  7. Who Said Thanks:

    There are too many to display.

  8. #1426

    Join Date
    Oct 2009
    Location
    Front of my PC
    Posts
    249
    Thank(s)
    106/6,450
    Rep Power
    0

    Default

    -== Back to the Future Part 3 ==-







    -= Download =-
    5 Parts @489 MB
    Total: 2.18GB





    You must click 'Thank You' before you can see the data contained here.
    You do not have sufficient rights to see the hidden data contained here.

    ENGLISH SUBTITLE


    Last edited by SmilefortheLife; 01-11-2011 at 05:30 AM.

  9. Who Said Thanks:

    There are too many to display.

  10. #1427

    Join Date
    Jul 2011
    Location
    dimana saja
    Posts
    1,262
    Thank(s)
    106/61,197
    Rep Power
    4

    Default

    Larry.Crowne.2011.720p.BluRay.x264-iNFAMOUS


    Show INFO

    Code:
    General
    Unique ID                        : 205451163457223432016264756266884483470 (0x9A90746C89864B25970BF1DC52F5498E)
    Complete name                    : inf-lrrcrwn720p.mkv
    Format                           : Matroska
    File size                        : 4.37 GiB
    Duration                         : 1h 38mn
    Overall bit rate                 : 6 347 Kbps
    Encoded date                     : UTC 2011-10-27 21:30:40
    Writing application              : mkvmerge v4.5.0 ('Speed of Light') built on Feb  1 2011 02:10:32
    Writing library                  : libebml v1.2.0 + libmatroska v1.1.0
    
    Video
    ID                               : 1
    Format                           : AVC
    Format/Info                      : Advanced Video Codec
    Format profile                   : High@L4.1
    Format settings, CABAC           : Yes
    Format settings, ReFrames        : 5 frames
    Muxing mode                      : Header stripping
    Codec ID                         : V_MPEG4/ISO/AVC
    Duration                         : 1h 38mn
    Bit rate                         : 5 580 Kbps
    Width                            : 1 280 pixels
    Height                           : 536 pixels
    Display aspect ratio             : 2.35:1
    Frame rate                       : 23.976 fps
    Color space                      : YUV
    Chroma subsampling               : 4:2:0
    Bit depth                        : 8 bits
    Scan type                        : Progressive
    Bits/(Pixel*Frame)               : 0.339
    Stream size                      : 3.76 GiB (86%)
    Writing library                  : x264 core 119 r2106 07efeb4
    Encoding settings                : cabac=1 / ref=5 / deblock=1:0:0 / analyse=0x3:0x133 / me=umh / subme=7 / psy=1 / psy_rd=1.00:0.00 / mixed_ref=1 / 
    
    me_range=16 / chroma_me=1 / trellis=1 / 8x8dct=1 / cqm=0 / deadzone=21,11 / fast_pskip=1 / chroma_qp_offset=-2 / threads=12 / sliced_threads=0 / nr=0 / 
    
    decimate=1 / interlaced=0 / bluray_compat=0 / constrained_intra=0 / bframes=3 / b_pyramid=2 / b_adapt=2 / b_bias=0 / direct=3 / weightb=1 / open_gop=0 / 
    
    weightp=2 / keyint=250 / keyint_min=23 / scenecut=40 / intra_refresh=0 / rc=2pass / mbtree=0 / bitrate=5580 / ratetol=1.0 / qcomp=0.60 / qpmin=0 / qpmax=69 / 
    
    qpstep=4 / cplxblur=20.0 / qblur=0.5 / ip_ratio=1.40 / pb_ratio=1.30 / aq=1:1.00
    Language                         : English
    
    Audio
    ID                               : 2
    Format                           : DTS
    Format/Info                      : Digital Theater Systems
    Muxing mode                      : Header stripping
    Codec ID                         : A_DTS
    Duration                         : 1h 38mn
    Bit rate mode                    : Constant
    Bit rate                         : 755 Kbps
    Channel(s)                       : 6 channels
    Channel positions                : Front: L C R, Side: L R, LFE
    Sampling rate                    : 48.0 KHz
    Bit depth                        : 24 bits
    Compression mode                 : Lossy
    Stream size                      : 532 MiB (12%)
    Language                         : English
    
    Menu
    00:00:00.000                     : en:00:00:00.000
    00:07:17.020                     : en:00:07:17.020
    00:15:29.262                     : en:00:15:29.262
    00:24:31.178                     : en:00:24:31.178
    00:33:43.188                     : en:00:33:43.188
    00:42:30.423                     : en:00:42:30.423
    00:50:33.405                     : en:00:50:33.405
    00:58:35.846                     : en:00:58:35.846
    01:05:12.992                     : en:01:05:12.992
    01:14:06.442                     : en:01:14:06.442
    01:25:03.724                     : en:01:25:03.724
    01:30:54.324                     : en:01:30:54.324



    You must click 'Thank You' before you can see the data contained here.
    You do not have sufficient rights to see the hidden data contained here.


    Code:
    * Download semua file dan join dengan HJSplit

  11. Who Said Thanks:

    There are too many to display.

  12. #1428

    Join Date
    Apr 2009
    Location
    Earth
    Posts
    28,626
    Thank(s)
    0/154,270
    Blog Entries
    2
    Rep Power
    47

    Default

    Quote Originally Posted by evolution View Post
    rusaknya kyk gini nih om..
    Show rusak

    kl di checksum sih ga ada error loh
    Show checksum

    mungkin emang dari encodernya yang error
    Quote Originally Posted by opr3k View Post
    Belum ada link idws-nya ya Gan ?
    junk
    Quote Originally Posted by SmilefortheLife View Post
    -== Back to the Future Part 1 ==-
    -== Back to the Future Part 2 ==-
    -== Back to the Future Part 3 ==-
    itu size nya berapa aja ya?

    judulnya taro diluar quote ya

  13. #1429

    Join Date
    Dec 2007
    Location
    159802
    Posts
    3,276
    Thank(s)
    1/5,890
    Blog Entries
    211
    Rep Power
    12

    Default

    Quote Originally Posted by Thinl View Post
    mungkin emang dari encodernya yang error

    junk


    itu size nya berapa aja ya?

    judulnya taro diluar quote ya
    sepertinya film yg di share bro SmilefortheLife bkn HD tuh bro...total sizenya 2.18GB...

    tp gpp deh, nice share buat bro SmilefortheLife

  14. Who Said Thanks:


  15. #1430

    Join Date
    Apr 2009
    Location
    Earth
    Posts
    28,626
    Thank(s)
    0/154,270
    Blog Entries
    2
    Rep Power
    47

    Default

    Quote Originally Posted by chucky View Post
    sepertinya film yg di share bro SmilefortheLife bkn HD tuh bro...total sizenya 2.18GB...

    tp gpp deh, nice share buat bro SmilefortheLife
    berarti m-720 ato mHD ya, gpp lah

Page 143 of 499 FirstFirst ... 4393133139140141142143144145146147153193243 ... LastLast

Bookmarks

Posting Permissions

  • You may not post new threads
  • You may not post replies
  • You may not post attachments
  • You may not edit your posts
  •  
Indowebster is proudly powered by PT. Gudang Data Indonesia