Page 15 of 499 FirstFirst ... 51112131415161718192565115 ... LastLast
Results 141 to 150 of 4981

Thread: [Archive] HD Collection | Link Lokal ONLY | Part II
http://idws.in/178115

  1. #141

    Join Date
    Aug 2010
    Location
    Jakarta
    Posts
    20
    Thank(s)
    1/17
    Rep Power
    0

    Default

    Maaf nih ngepost disini,

    ane mau lapor , film sanctum gak bisa di download, storage maintenance mulu, udah 2 bulan yang lalu kalo gak salah..
    yang upload juga gak bisa di message ( PM/VM )
    mudah-mudahan agan smarty baca deh nih

    oia Sanctum part 20
    thx

  2. Who Said Thanks:


  3. #142

    Join Date
    Apr 2009
    Location
    Earth
    Posts
    28,468
    Thank(s)
    191/151,817
    Blog Entries
    2
    Rep Power
    44

    Default

    Eight Below (2006) BluRay 1080p DTS 3Audio x264-CHD

    Show INFO
    Code:
    General
    Unique ID                        : 220231938092369014845541471441764961195 (0xA5AF20E0AC8A4558BF2F4DB6F13F4BAB)
    Complete name                    : G:\Rampok\Eight Below (2006) BluRay 1080p DTS 3Audio x264-CHD\Eight Below (2006) BluRay 1080p DTS 3Audio x264-CHD.mkv
    Format                           : Matroska
    File size                        : 9.50 GiB
    Duration                         : 2h 0mn
    Overall bit rate                 : 11.3 Mbps
    Encoded date                     : UTC 2010-12-17 04:42:51
    Writing application              : mkvmerge v3.2.0 ('Beginnings') 编译于 Feb 12 2010 16:46:17
    Writing library                  : libebml v0.7.9 + libmatroska v0.8.1
    
    Video
    ID                               : 1
    Format                           : AVC
    Format/Info                      : Advanced Video Codec
    Format profile                   : High@L4.1
    Format settings, CABAC           : Yes
    Format settings, ReFrames        : 5 frames
    Codec ID                         : V_MPEG4/ISO/AVC
    Duration                         : 2h 0mn
    Bit rate                         : 9 208 Kbps
    Width                            : 1 920 pixels
    Height                           : 800 pixels
    Display aspect ratio             : 2.40:1
    Frame rate                       : 23.976 fps
    Color space                      : YUV
    Chroma subsampling               : 4:2:0
    Bit depth                        : 8 bits
    Scan type                        : Progressive
    Bits/(Pixel*Frame)               : 0.250
    Stream size                      : 7.56 GiB (80%)
    Title                            : Eight.Below.2006
    Writing library                  : x264 core 107 r1766 f9f0035
    Encoding settings                : cabac=1 / ref=5 / deblock=1:-3:-3 / analyse=0x3:0x113 / me=umh / subme=10 / psy=1 / psy_rd=1.10:0.15 / mixed_ref=1 / me_range=32 / chroma_me=1 / trellis=2 / 8x8dct=1 / cqm=2 / deadzone=21,11 / fast_pskip=0 / chroma_qp_offset=-2 / threads=12 / sliced_threads=0 / nr=0 / decimate=1 / interlaced=0 / constrained_intra=0 / bframes=6 / b_pyramid=2 / b_adapt=2 / b_bias=0 / direct=3 / weightb=1 / open_gop=0 / weightp=2 / keyint=250 / keyint_min=23 / scenecut=40 / intra_refresh=0 / rc_lookahead=40 / rc=2pass / mbtree=0 / bitrate=9208 / ratetol=1.0 / qcomp=0.70 / qpmin=10 / qpmax=51 / qpstep=4 / cplxblur=20.0 / qblur=0.5 / vbv_maxrate=45000 / vbv_bufsize=40000 / ip_ratio=1.40 / pb_ratio=1.30 / aq=1:0.80 / nal_hrd=none
    Language                         : English
    
    Audio #1
    ID                               : 2
    Format                           : DTS
    Format/Info                      : Digital Theater Systems
    Codec ID                         : A_DTS
    Duration                         : 2h 0mn
    Bit rate mode                    : Constant
    Bit rate                         : 1 510 Kbps
    Channel(s)                       : 6 channels
    Channel positions                : Front: L C R, Side: L R, LFE
    Sampling rate                    : 48.0 KHz
    Bit depth                        : 24 bits
    Compression mode                 : Lossy
    Stream size                      : 1.27 GiB (13%)
    Title                            : DTS-5,1CH 1536K(From LPCM5.1)
    Language                         : English
    
    Audio #2
    ID                               : 3
    Format                           : AC-3
    Format/Info                      : Audio Coding 3
    Mode extension                   : CM (complete main)
    Codec ID                         : A_AC3
    Duration                         : 2h 0mn
    Bit rate mode                    : Constant
    Bit rate                         : 384 Kbps
    Channel(s)                       : 6 channels
    Channel positions                : Front: L C R, Side: L R, LFE
    Sampling rate                    : 48.0 KHz
    Bit depth                        : 16 bits
    Compression mode                 : Lossy
    Stream size                      : 331 MiB (3%)
    Title                            : DD5.1 384K Mandarin
    Language                         : Chinese
    
    Audio #3
    ID                               : 4
    Format                           : AC-3
    Format/Info                      : Audio Coding 3
    Format profile                   : Dolby Digital
    Mode extension                   : CM (complete main)
    Codec ID                         : A_AC3
    Duration                         : 2h 0mn
    Bit rate mode                    : Constant
    Bit rate                         : 192 Kbps
    Channel(s)                       : 2 channels
    Channel positions                : Front: L R
    Sampling rate                    : 48.0 KHz
    Bit depth                        : 16 bits
    Compression mode                 : Lossy
    Stream size                      : 165 MiB (2%)
    Title                            : DD2.0 192K Cantonese
    Language                         : Chinese
    
    

    Show DOWNLOAD

    Code:
    SILAHKAN DIBACA DAHULU
    Download semua file. Join dengan HJSplit
    Untuk tanya masalah server IDWS silahkan ke SINI
    Cek Checksum pakai exactfile
    Bingung cara checksum? Bisa di cek disini
    
    Kalo ada masalah silahkan lapor via PM atau VM
    
    
    You must click 'Thank You' before you can see the data contained here.
    You do not have sufficient rights to see the hidden data contained here.

  4. Who Said Thanks:

    There are too many to display.

  5. #143

    Join Date
    Apr 2009
    Location
    Earth
    Posts
    28,468
    Thank(s)
    157/151,817
    Blog Entries
    2
    Rep Power
    44

    Default

    6 Guns (2010) 720p-SWAGGERHD

    Show INFO
    Code:
    General
    Unique ID                        : 199561575463612447222731962254422969984 (0x9622295114B633AF82CAADD1F1F80E80)
    Complete name                    : G:\Rampok\6 Guns (2010) 720p-SWAGGERHD NO SUB\6 Guns (2010) 720p-SWAGGERHD.mkv
    Format                           : Matroska
    File size                        : 4.37 GiB
    Duration                         : 1h 35mn
    Overall bit rate                 : 6 540 Kbps
    Encoded date                     : UTC 2011-04-02 14:34:37
    Writing application              : mkvmerge v4.4.0 ('Die Wiederkehr') gebaut am Oct 31 2010 21:52:48
    Writing library                  : libebml v1.0.0 + libmatroska v1.0.0
    
    Video
    ID                               : 1
    Format                           : AVC
    Format/Info                      : Advanced Video Codec
    Format profile                   : High@L4.1
    Format settings, CABAC           : Yes
    Format settings, ReFrames        : 5 frames
    Muxing mode                      : Header stripping
    Codec ID                         : V_MPEG4/ISO/AVC
    Duration                         : 1h 35mn
    Bit rate                         : 5 034 Kbps
    Width                            : 1 280 pixels
    Height                           : 720 pixels
    Display aspect ratio             : 16:9
    Frame rate                       : 23.976 fps
    Color space                      : YUV
    Chroma subsampling               : 4:2:0
    Bit depth                        : 8 bits
    Scan type                        : Progressive
    Bits/(Pixel*Frame)               : 0.228
    Stream size                      : 3.27 GiB (75%)
    Writing library                  : x264 core 114 r1924 08d04a4
    Encoding settings                : cabac=1 / ref=5 / deblock=1:0:0 / analyse=0x3:0x133 / me=umh / subme=7 / psy=1 / psy_rd=1.00:0.00 / mixed_ref=1 / me_range=16 / chroma_me=1 / trellis=1 / 8x8dct=1 / cqm=0 / deadzone=21,11 / fast_pskip=0 / chroma_qp_offset=-1 / threads=12 / sliced_threads=0 / nr=0 / decimate=1 / interlaced=0 / constrained_intra=0 / bframes=3 / b_pyramid=2 / b_adapt=1 / b_bias=0 / direct=3 / weightb=1 / open_gop=0 / weightp=2 / keyint=250 / keyint_min=23 / scenecut=40 / intra_refresh=0 / rc_lookahead=40 / rc=2pass / mbtree=1 / bitrate=5034 / ratetol=1.0 / qcomp=0.60 / qpmin=10 / qpmax=51 / qpstep=4 / cplxblur=20.0 / qblur=0.5 / ip_ratio=1.40 / aq=1:1.00
    Language                         : English
    
    Audio
    ID                               : 2
    Format                           : DTS
    Format/Info                      : Digital Theater Systems
    Muxing mode                      : Header stripping
    Codec ID                         : A_DTS
    Duration                         : 1h 35mn
    Bit rate mode                    : Constant
    Bit rate                         : 1 510 Kbps
    Channel(s)                       : 6 channels
    Channel positions                : Front: L C R, Side: L R, LFE
    Sampling rate                    : 48.0 KHz
    Bit depth                        : 24 bits
    Compression mode                 : Lossy
    Stream size                      : 1.01 GiB (23%)
    Title                            : English DTS
    Language                         : English
    
    

    Show DOWNLOAD

    Code:
    SILAHKAN DIBACA DAHULU
    Download semua file. Join dengan HJSplit
    Untuk tanya masalah server IDWS silahkan ke SINI
    Cek Checksum pakai exactfile
    Bingung cara checksum? Bisa di cek disini
    
    Kalo ada masalah silahkan lapor via PM atau VM
    
    
    You must click 'Thank You' before you can see the data contained here.
    You do not have sufficient rights to see the hidden data contained here.

  6. Who Said Thanks:

    There are too many to display.

  7. #144

    Join Date
    Apr 2009
    Location
    Earth
    Posts
    28,468
    Thank(s)
    2/151,817
    Blog Entries
    2
    Rep Power
    44

    Default

    Quote Originally Posted by Semplice View Post
    Thor.2011.1080p.BluRay.x264-SECTOR7
    kelar di download dan tidak kurang suatu apapun

  8. Who Said Thanks:


  9. #145

    Join Date
    Jun 2010
    Location
    Jakarta
    Posts
    77
    Thank(s)
    0/141
    Rep Power
    0

    Default

    mastah2..
    mau nanya donk..
    ane kan baru beres download Xmen 1080p nya..
    pas extract, koq ada eror spt ini ya..

    "! The request could not be performed because of an I\O device error.
    ! Read error in the file C:\Users\Ronald\Desktop\X Men First Class 1080p\part4.rar
    ! The request could not be performed because of an I\O device error.


    Mohon bantuan nya donk.. thanks.. ane skrg lg ulang download part 4 nyaa

  10. #146

    Join Date
    Jul 2011
    Location
    dimana saja
    Posts
    1,262
    Thank(s)
    6/60,352
    Rep Power
    4

    Default

    Quote Originally Posted by Thinl View Post
    Pirates of the Caribbean: On Stranger Tides [2011] [1080p]
    Download lancar, baru distel skip2 aja mantab.

    Quote Originally Posted by Cailne View Post
    [CENTER]X-Men.First.Class.2011.BluRay.1080p.x264.DTS.AC3.2Au dio-HDChina
    Download lancar, lagi ditonton mantab.

  11. #147

    Join Date
    Aug 2009
    Location
    Surabaya
    Posts
    86
    Thank(s)
    5/122
    Rep Power
    0

    Default

    Quote Originally Posted by Thinl View Post
    Thor [2011] [720p]
    lapor, download lancar, film lancar...
    thanks bro Thinl :)

  12. Who Said Thanks:


  13. #148

    Join Date
    Jun 2010
    Location
    Jakarta
    Posts
    77
    Thank(s)
    0/141
    Rep Power
    0

    Default

    Quote Originally Posted by chelsea_blues View Post
    mastah2..
    mau nanya donk..
    ane kan baru beres download Xmen 1080p nya..
    pas extract, koq ada eror spt ini ya..

    "! The request could not be performed because of an I\O device error.
    ! Read error in the file C:\Users\Ronald\Desktop\X Men First Class 1080p\part4.rar
    ! The request could not be performed because of an I\O device error.


    Mohon bantuan nya donk.. thanks.. ane skrg lg ulang download part 4 nyaa

    problem solved by re-download part 4..

    lancar jaya..
    tq

  14. #149

    Join Date
    Jun 2010
    Location
    Jakarta
    Posts
    77
    Thank(s)
    1/141
    Rep Power
    0

    Default

    Quote Originally Posted by Semplice View Post
    Thor.2011.1080p.BluRay.x264-SECTOR7
    bro, mau nanya nih...
    koq ane schedule download semua part nya.. skrg part 3,4,8,13,16 , udah ga bisa di download lg ya..
    ada yang bisa bantu? kebetulan udah kena limit 5 hari ini.. jd ga bisa ngulang...

    tq

  15. Who Said Thanks:


  16. #150

    Join Date
    Dec 2010
    Location
    Jakarta
    Posts
    64
    Thank(s)
    0/928
    Rep Power
    0

    Default

    Quote Originally Posted by chelsea_blues View Post
    bro, mau nanya nih...
    koq ane schedule download semua part nya.. skrg part 3,4,8,13,16 , udah ga bisa di download lg ya..
    ada yang bisa bantu? kebetulan udah kena limit 5 hari ini.. jd ga bisa ngulang...

    tq
    kalo maknyos tiap link max 24jam..
    situ taro di schedule lebih dr 24jam?

Page 15 of 499 FirstFirst ... 51112131415161718192565115 ... LastLast

Bookmarks

Posting Permissions

  • You may not post new threads
  • You may not post replies
  • You may not post attachments
  • You may not edit your posts
  •  
Indowebster is proudly powered by PT. Gudang Data Indonesia