Page 159 of 499 FirstFirst ... 59109149155156157158159160161162163169209259 ... LastLast
Results 1,581 to 1,590 of 4981

Thread: [Archive] HD Collection | Link Lokal ONLY | Part II
http://idws.in/178115

  1. #1581

    Join Date
    Jul 2011
    Location
    dimana saja
    Posts
    1,262
    Thank(s)
    191/60,819
    Rep Power
    4

    Default

    30.Minutes.or.Less.2011.BluRay.720p.x264.DTS-HDChina


    Show INFO

    Code:
    General
    Unique ID                        : 248269970345271867447490870687100041943 (0xBAC70E98BB73FFC2879A7156DDBBFAD7)
    Complete name                    : 30.Minutes.or.Less.2011.BluRay.720p.x264.DTS-HDChina.mkv
    Format                           : Matroska
    File size                        : 3.28 GiB
    Duration                         : 1h 23mn
    Overall bit rate                 : 5 653 Kbps
    Encoded date                     : UTC 2011-11-04 13:25:41
    Writing application              : mkvmerge v4.0.0 ('The Stars were mine') built on Jun  6 2010 16:18:42
    Writing library                  : libebml v1.0.0 + libmatroska v1.0.0
    
    Video
    ID                               : 1
    Format                           : AVC
    Format/Info                      : Advanced Video Codec
    Format profile                   : High@L4.1
    Format settings, CABAC           : Yes
    Format settings, ReFrames        : 12 frames
    Codec ID                         : V_MPEG4/ISO/AVC
    Duration                         : 1h 23mn
    Bit rate                         : 4 142 Kbps
    Width                            : 1 280 pixels
    Height                           : 534 pixels
    Display aspect ratio             : 2.35:1
    Frame rate                       : 23.976 fps
    Color space                      : YUV
    Chroma subsampling               : 4:2:0
    Bit depth                        : 8 bits
    Scan type                        : Progressive
    Bits/(Pixel*Frame)               : 0.253
    Stream size                      : 2.34 GiB (71%)
    Writing library                  : x264 core 116 r2074 2641b9e
    Encoding settings                : cabac=1 / ref=12 / deblock=1:-3:-2 / analyse=0x3:0x133 / me=umh / subme=10 / psy=1 / psy_rd=1.00:0.05 / mixed_ref=1 / 
    
    me_range=36 / chroma_me=1 / trellis=2 / 8x8dct=1 / cqm=0 / deadzone=21,11 / fast_pskip=0 / chroma_qp_offset=-3 / threads=9 / sliced_threads=0 / nr=0 / 
    
    decimate=0 / interlaced=0 / bluray_compat=0 / constrained_intra=0 / bframes=6 / b_pyramid=2 / b_adapt=2 / b_bias=0 / direct=3 / weightb=1 / open_gop=0 / 
    
    weightp=2 / keyint=360 / keyint_min=2 / scenecut=40 / intra_refresh=0 / rc_lookahead=90 / rc=2pass / mbtree=1 / bitrate=4142 / ratetol=1.0 / qcomp=0.70 / 
    
    qpmin=0 / qpmax=69 / qpstep=4 / cplxblur=20.0 / qblur=0.5 / ip_ratio=1.40 / aq=2:1.00
    
    Audio
    ID                               : 2
    Format                           : DTS
    Format/Info                      : Digital Theater Systems
    Codec ID                         : A_DTS
    Duration                         : 1h 23mn
    Bit rate mode                    : Constant
    Bit rate                         : 1 510 Kbps
    Channel(s)                       : 6 channels
    Channel positions                : Front: L C R, Side: L R, LFE
    Sampling rate                    : 48.0 KHz
    Bit depth                        : 24 bits
    Compression mode                 : Lossy
    Stream size                      : 897 MiB (27%)
    Language                         : English
    
    Menu
    00:00:00.000                     : en:Chapter.01
    00:04:02.283                     : en:Chapter.02
    00:10:14.322                     : en:Chapter.03
    00:15:47.905                     : en:Chapter.04
    00:20:26.642                     : en:Chapter.05
    00:27:07.000                     : en:Chapter.06
    00:30:19.984                     : en:Chapter.07
    00:35:03.017                     : en:Chapter.08
    00:41:10.926                     : en:Chapter.09
    00:45:14.712                     : en:Chapter.10
    00:49:54.449                     : en:Chapter.11
    00:54:01.821                     : en:Chapter.12
    00:58:42.185                     : en:Chapter.13
    01:03:39.232                     : en:Chapter.14
    01:07:53.778                     : en:Chapter.15
    01:14:51.737                     : en:Chapter.16



    You must click 'Thank You' before you can see the data contained here.
    You do not have sufficient rights to see the hidden data contained here.


    Code:
    * Download semua file dan join dengan HJSplit

  2. Who Said Thanks:

    There are too many to display.

  3. #1582

    Join Date
    Sep 2009
    Location
    Spirit of Java
    Posts
    50
    Thank(s)
    0/10
    Rep Power
    0

    Default

    Quote Originally Posted by kycha View Post
    Harry Potter and the Deathly Hallows Part 2 (2011) BluRay 720p DTS x264-CHD
    lapor bro linknya dari part 5,6,7,8,9,10 404 not found semua..
    tolong di fix in donk udah nunggu lebih dari 4 hari niih ttp sama aja
    Last edited by fahrysyndrome; 09-11-2011 at 12:02 AM.

  4. #1583

    Join Date
    Apr 2011
    Location
    jakarta
    Posts
    55
    Thank(s)
    0/36
    Rep Power
    0

    Default

    [QUOTE=fahrysyndrome;12829738]
    Quote Originally Posted by kycha View Post
    Harry Potter and the Deathly Hallows Part 2 (2011) BluRay 720p DTS x264-CHD

    lapor bro linknya dari part 5,6,7,8,9,10 404 not found semua.. :hot
    tolong di fix in donk udah nunggu lebih dari 4 hari niih ttp sama aja anda
    sama gan ama ane T,T

  5. #1584

    Join Date
    Aug 2009
    Location
    indonesia
    Posts
    42
    Thank(s)
    0/263
    Rep Power
    0

    Default

    Quote Originally Posted by Semplice View Post
    # Sudah direupload
    itu file nya ma link yg dulu sama gx bro??

  6. #1585

    Join Date
    Jul 2011
    Location
    dimana saja
    Posts
    1,262
    Thank(s)
    0/60,819
    Rep Power
    4

    Default

    Quote Originally Posted by phekix View Post
    itu file nya ma link yg dulu sama gx bro??
    kalo Harry Potter 7 Part 2 1080p ini sizenya sama, tapi nama filenya berbeda, jadi linknya juga beda.

  7. #1586

    Join Date
    Dec 2008
    Location
    Jakarta
    Posts
    83
    Thank(s)
    1/384
    Rep Power
    0

    Default

    Quote Originally Posted by Semplice View Post
    Friends.with.Benefits.2011.BluRay.720p.x264.DTS-HDChina
    sudah selesai di unduh... di gabung... di tonton....

    hadeuuuhh mila kunis nya bikin cenat cenuutt

    thanks ya bro semplice

    next projectnya apa nih???

  8. Who Said Thanks:


  9. #1587

    Join Date
    Oct 2008
    Location
    Indonesia
    Posts
    373
    Thank(s)
    2/260
    Rep Power
    0

    Default

    Quote Originally Posted by Thinl View Post
    Alien Vs Predator [UNRATED] (1080p)
    Quote Originally Posted by Semplice View Post
    30.Minutes.or.Less.2011.BluRay.720p.x264.DTS-HDChina
    donlod done..play lancar... thx buat uploader.. makin berkurang uploader skrg tanpa bro Thinl

    om semplice jg kena racun convert DTS-HDChina.. lbh detail n warna lbh pas di mata

  10. Who Said Thanks:


  11. #1588

    Join Date
    May 2011
    Location
    bit.ly/pTD432
    Posts
    187
    Thank(s)
    1/90
    Rep Power
    0

    Default

    Quote Originally Posted by Semplice View Post
    30.Minutes.or.Less.2011.BluRay.720p.x264.DTS-HDChina
    done downloading + joining + sneak peaking
    thx for uploading bro..

  12. Who Said Thanks:


  13. #1589

    Join Date
    Oct 2009
    Location
    Jakarta
    Posts
    351
    Thank(s)
    328/23,407
    Rep Power
    0

    Exclamation Rise of the Planet of the Apes [2011][BluRay][720p][DTS][2Audio][x264][CHD]

    Rise of the Planet of the Apes [2011][BluRay][720p][DTS][2Audio][x264][CHD]



    Uploaded with ImageShack.us

    Code:
    	                   
    
    Rise.of.the.Planet.of.the.Apes.2011.BluRay.720p.DTS.x264-CHD.mkv
    Format                          : Matroska
    File size                        : 4.67 GiB
    Duration                        : 1h 44mn
    Overall bit rate              : 6 376 Kbps
    Encoded date                : UTC 2011-11-07 07:16:27
    Writing application         : mkvmerge v4.7.0 ('Just Like You Imagined') built on Apr 21 2011 01:13:14
    Writing library                : libebml v1.2.0 + libmatroska v1.1.0
    
    Video
    ID                                   : 1
    Format                           : AVC
    Format/Info                    : Advanced Video Codec
    Format profile                 : High@L4.1
    Format settings, CABAC  : Yes
    Format settings, ReFrames        : 12 frames
    Format_Settings_GOP              : M=1, N=32
    Muxing mode                      : Container profile=Unknown@4.1
    Codec ID                         : V_MPEG4/ISO/AVC
    Duration                         : 1h 44mn
    Bit rate                           : 4 864 Kbps
    Width                             : 1 280 pixels
    Height                            : 544 pixels
    Display aspect ratio       : 2.35:1
    Frame rate                     : 23.976 fps
    Resolution                      : 8 bits
    Colorimetry                     : 4:2:0
    Scan type                       : Progressive
    Bits/(Pixel*Frame)          : 0.291
    Stream size                    : 3.47 GiB (74%)
    Title                                : Rise.of.the.Planet.of.the.Apes.2011.BluRay.720p.DTS.2Audio.x264-CHD
    Writing library                 : x264 core 102 r1666 d058f37
    Encoding settings           : cabac=1 / ref=12 / deblock=1:-3:-3 / analyse=0x3:0x113 / me=umh / 
    subme=10 / psy=1 / psy_rd=1.05:0.10 / mixed_ref=1 / me_range=32 / chroma_me=1 / trellis=2 / 
    8x8dct=1 / cqm=2 / deadzone=21,11 / fast_pskip=0 / chroma_qp_offset=-2 / threads=6 / 
    sliced_threads=0 / nr=0 / decimate=1 / interlaced=0 / constrained_intra=0 / bframes=6 / b_pyramid=2 /
     b_adapt=2 / b_bias=0 / direct=3 / weightb=1 / open_gop=0 / weightp=2 / keyint=250 / keyint_min=25
     / scenecut=40 / intra_refresh=0 / rc_lookahead=40 / rc=2pass / mbtree=1 / bitrate=4864 / ratetol=1.0 / 
    qcomp=0.60 / qpmin=10 / qpmax=51 / qpstep=4 / cplxblur=20.0 / qblur=0.5 / vbv_maxrate=50000 / 
    vbv_bufsize=50000 / ip_ratio=1.40 / aq=1:0.80 / nal_hrd=none
    
    Audio
    ID                               : 2
    Format                        : DTS
    Format/Info                 : Digital Theater Systems
    Codec ID                     : A_DTS
    Duration                      : 1h 44mn
    Bit rate mode              : Constant
    Bit rate                        : 1 510 Kbps
    Channel(s)                   : 6 channels
    Channel positions        : Front: L C R, Side: L R, LFE
    Sampling rate              : 48.0 KHz
    Resolution                    : 24 bits
    Stream size                  : 1.11 GiB (24%)
    Title                              : Rise.of.the.Planet.of.the.Apes.2011.DTS-HD.MA.Core_1509kbps


    You must click 'Thank You' before you can see the data contained here.
    You do not have sufficient rights to see the hidden data contained here.


    Code:
    Join pake HJSplit or FFSJ
    Jangan lupa....
    ---
    Last edited by Nattacker; 25-11-2011 at 05:25 PM.

  14. Who Said Thanks:

    There are too many to display.

  15. #1590

    Join Date
    Jul 2011
    Location
    dimana saja
    Posts
    1,262
    Thank(s)
    595/60,819
    Rep Power
    4

    Default

    Rise.of.the.Planet.of.the.Apes.2011.BluRay.1080p.D TS.x264-CHD


    Show INFO

    Code:
    General
    Unique ID                        : 195753881840478150326960612396025320655 (0x9344D386DE07B78589AE62E6310514CF)
    Complete name                    : Rise.of.the.Planet.of.the.Apes.2011.BluRay.1080p.DTS.x264-CHD.mkv
    Format                           : Matroska
    File size                        : 10.5 GiB
    Duration                         : 1h 44mn
    Overall bit rate                 : 14.4 Mbps
    Encoded date                     : UTC 2011-11-07 08:24:45
    Writing application              : mkvmerge v5.0.1 ('Es ist Sommer') built on Oct  9 2011 11:55:43
    Writing library                  : libebml v1.2.2 + libmatroska v1.3.0
    
    Video
    ID                               : 1
    Format                           : AVC
    Format/Info                      : Advanced Video Codec
    Format profile                   : High@L4.1
    Format settings, CABAC           : Yes
    Format settings, ReFrames        : 5 frames
    Codec ID                         : V_MPEG4/ISO/AVC
    Duration                         : 1h 44mn
    Bit rate                         : 12.9 Mbps
    Width                            : 1 920 pixels
    Height                           : 816 pixels
    Display aspect ratio             : 2.35:1
    Frame rate                       : 23.976 fps
    Color space                      : YUV
    Chroma subsampling               : 4:2:0
    Bit depth                        : 8 bits
    Scan type                        : Progressive
    Bits/(Pixel*Frame)               : 0.343
    Stream size                      : 9.23 GiB (88%)
    Title                            : Rise.of.the.Planet.of.the.Apes.2011
    Writing library                  : x264 core 116 r2074 2641b9e
    Encoding settings                : cabac=1 / ref=5 / deblock=1:-3:-3 / analyse=0x3:0x113 / me=umh / subme=11 / psy=1 / psy_rd=1.05:0.10 / mixed_ref=1 / 
    
    me_range=48 / chroma_me=1 / trellis=2 / 8x8dct=1 / cqm=2 / deadzone=21,11 / fast_pskip=0 / chroma_qp_offset=-2 / threads=8 / sliced_threads=0 / nr=0 / 
    
    decimate=1 / interlaced=0 / bluray_compat=0 / constrained_intra=0 / bframes=6 / b_pyramid=2 / b_adapt=2 / b_bias=0 / direct=3 / weightb=1 / open_gop=0 / 
    
    weightp=2 / keyint=250 / keyint_min=23 / scenecut=40 / intra_refresh=0 / rc_lookahead=60 / rc=2pass / mbtree=1 / bitrate=12877 / ratetol=1.0 / qcomp=0.70 / 
    
    qpmin=1 / qpmax=63 / qpstep=4 / cplxblur=20.0 / qblur=0.5 / vbv_maxrate=45000 / vbv_bufsize=40000 / nal_hrd=none / ip_ratio=1.40 / aq=2:0.90
    Language                         : English
    
    Audio
    ID                               : 2
    Format                           : DTS
    Format/Info                      : Digital Theater Systems
    Codec ID                         : A_DTS
    Duration                         : 1h 44mn
    Bit rate mode                    : Constant
    Bit rate                         : 1 510 Kbps
    Channel(s)                       : 6 channels
    Channel positions                : Front: L C R, Side: L R, LFE
    Sampling rate                    : 48.0 KHz
    Bit depth                        : 24 bits
    Compression mode                 : Lossy
    Stream size                      : 1.11 GiB (10%)
    Title                            : DTS-CORE 1536K
    Language                         : English



    You must click 'Thank You' before you can see the data contained here.
    You do not have sufficient rights to see the hidden data contained here.


    Code:
    * Download semua file dan join dengan HJSplit
    Last edited by Semplice; 09-11-2011 at 10:38 PM.

  16. Who Said Thanks:

    There are too many to display.

Page 159 of 499 FirstFirst ... 59109149155156157158159160161162163169209259 ... LastLast

Bookmarks

Posting Permissions

  • You may not post new threads
  • You may not post replies
  • You may not post attachments
  • You may not edit your posts
  •  
Indowebster is proudly powered by PT. Gudang Data Indonesia