Page 24 of 499 FirstFirst ... 142021222324252627283474124 ... LastLast
Results 231 to 240 of 4981

Thread: [Archive] HD Collection | Link Lokal ONLY | Part II
http://idws.in/178115

  1. #231

    Join Date
    Aug 2010
    Location
    WonderLand
    Posts
    11
    Thank(s)
    0/18
    Rep Power
    0

    Default

    Black Hawk Down | 2001 | 10.1Gb
    Permisi, ada yang tau passwordnya ga ya?
    Pass yang dicantumin kok error ya:
    ! D:\Black Hawk Down\rebuilt.bhd.part01.rar: CRC failed in the encrypted file black.hawk.down.2001.1080p.bluray.x264-wpi.mkv (wrong password ?)

  2. #232

    Join Date
    May 2011
    Location
    bit.ly/pTD432
    Posts
    187
    Thank(s)
    1/90
    Rep Power
    0

    Default

    Quote Originally Posted by admiral_akainu View Post
    Pirates of the Caribbean On Stranger Tides | 2011 | 10.9GB by Thinl
    X-Men First Class | 2011 by Cailne

    Lancar didonlod. Thx to uploader

    Thor | 2011 | 7.64GB by Semplice
    Bro, tlg reupload k IDWS dunkk. d maknyos kena limit terus.
    klo kena limit, mending daftar dulu..
    trs pake script donlot maknyoss di browsernya.
    smua jadi otomatis..

  3. Who Said Thanks:


  4. #233

    Join Date
    Dec 2009
    Location
    In Your Dream
    Posts
    162
    Thank(s)
    0/2,284
    Rep Power
    0

    Default

    Quote Originally Posted by kalempong_cie View Post
    klo kena limit, mending daftar dulu..
    trs pake script donlot maknyoss di browsernya.
    smua jadi otomatis..
    bgmn caranya?
    script nya dapet dimana?

  5. #234

    Join Date
    Sep 2010
    Location
    Jakarta
    Posts
    27
    Thank(s)
    5/30
    Rep Power
    0

    Default

    Quote Originally Posted by Thinl View Post
    Pirates of the Caribbean: On Stranger Tides [2011] [1080p]
    Quote Originally Posted by Cailne View Post
    [CENTER]Fast.Five.2011.1080p.BluRay.DTS.x264-HD.mkv
    Report: Downlod Lancar, Extrac Lancar, Test Play juga Lancar. Thanks Untuk Para Uploader

  6. Who Said Thanks:


  7. #235

    Join Date
    May 2011
    Location
    bit.ly/pTD432
    Posts
    187
    Thank(s)
    1/90
    Rep Power
    0

    Default

    Quote Originally Posted by JohnzKay View Post
    bgmn caranya?
    script nya dapet dimana?
    Maknyos Auto Link
    Code:
    http://userscripts.org/scripts/show/91629
    Sumber: TKP

  8. Who Said Thanks:


  9. #236

    Join Date
    May 2011
    Location
    bit.ly/pTD432
    Posts
    187
    Thank(s)
    0/90
    Rep Power
    0

    Default

    Quote Originally Posted by lengzai View Post
    apakah ini film yang ada sublite indonesia dan english?
    thx
    tinggal donlot disini: http://subscene.com/

  10. #237

    Join Date
    Mar 2010
    Location
    Jakarta
    Posts
    7
    Thank(s)
    2/2
    Rep Power
    0

    Default

    Quote Originally Posted by Thinl View Post
    Thor [2011] [720p]
    download lancar, join file juga lancar. tp pas ditonton kadang suka pecah2 gambarnya kenapa ya?

  11. Who Said Thanks:


  12. #238

    Join Date
    May 2011
    Location
    bit.ly/pTD432
    Posts
    187
    Thank(s)
    1/90
    Rep Power
    0

    Default

    Quote Originally Posted by catmandoo View Post
    download lancar, join file juga lancar. tp pas ditonton kadang suka pecah2 gambarnya kenapa ya?
    udh coba fix pake torrent. gw sendiri masih blm paham sih. ada tutsnya di hal. 1

    Quote Originally Posted by glossyx1 View Post
    Bump
    coba PM uploadernya..

  13. Who Said Thanks:


  14. #239

    Join Date
    Apr 2009
    Location
    Earth
    Posts
    28,542
    Thank(s)
    540/153,306
    Blog Entries
    2
    Rep Power
    46

    Default

    Wall-E [2008] [1080p]

    Show INFO
    Code:
    General
    Unique ID                        : 184102470207682410375410153305546280537 (0x8A80D894D2C443ACA374202EE245CE59)
    Complete name                    : E:\HD Movie 2\Wall-E [1080p]\Wall-E.mkv
    Format                           : Matroska
    File size                        : 6.05 GiB
    Duration                         : 1h 37mn
    Overall bit rate                 : 8 892 Kbps
    Movie name                       : WALL·E (2008)
    Encoded date                     : UTC 2008-11-13 22:25:55
    Writing application              : mkvmerge v2.0.2 ('You're My Flame') built on Feb 21 2007 23:40:55
    Writing library                  : libebml v0.7.7 + libmatroska v0.8.1
    Cover                            : Yes / Yes / Yes / Yes / Yes
    
    Video
    ID                               : 1
    Format                           : AVC
    Format/Info                      : Advanced Video Codec
    Format profile                   : High@L4.1
    Format settings, CABAC           : Yes
    Format settings, ReFrames        : 4 frames
    Codec ID                         : V_MPEG4/ISO/AVC
    Duration                         : 1h 37mn
    Bit rate                         : 7 230 Kbps
    Width                            : 1 920 pixels
    Height                           : 804 pixels
    Display aspect ratio             : 2.35:1
    Frame rate                       : 23.976 fps
    Color space                      : YUV
    Chroma subsampling               : 4:2:0
    Bit depth                        : 8 bits
    Scan type                        : Progressive
    Bits/(Pixel*Frame)               : 0.195
    Stream size                      : 4.79 GiB (79%)
    Writing library                  : x264 core 65 r1026M 745a48b
    Encoding settings                : cabac=1 / ref=4 / deblock=1:-3:-3 / analyse=0x3:0x133 / me=umh / subme=9 / psy_rd=0.9:0.0 / mixed_ref=1 / me_range=24 / chroma_me=1 / trellis=0 / 8x8dct=1 / cqm=0 / deadzone=18,10 / chroma_qp_offset=-2 / threads=3 / nr=0 / decimate=1 / mbaff=0 / bframes=6 / b_pyramid=1 / b_adapt=2 / b_bias=0 / direct=1 / wpredb=1 / keyint=250 / keyint_min=25 / scenecut=40(pre) / rc=2pass / bitrate=7230 / ratetol=1.0 / qcomp=0.60 / qpmin=10 / qpmax=20 / qpstep=4 / cplxblur=20.0 / qblur=0.5 / ip_ratio=1.40 / pb_ratio=1.30 / aq=1:0.65
    Language                         : English
    
    Audio #1
    ID                               : 2
    Format                           : DTS
    Format/Info                      : Digital Theater Systems
    Format profile                   : ES
    Codec ID                         : A_DTS
    Duration                         : 1h 37mn
    Bit rate mode                    : Constant
    Bit rate                         : 1 510 Kbps
    Channel(s)                       : 6 channels
    Channel positions                : Front: L C R, Side: L R, LFE
    Sampling rate                    : 48.0 KHz
    Bit depth                        : 24 bits
    Compression mode                 : Lossy
    Stream size                      : 1.03 GiB (17%)
    Language                         : English
    
    Audio #2
    ID                               : 3
    Format                           : Vorbis
    Format settings, Floor           : 1
    Codec ID                         : A_VORBIS
    Duration                         : 1h 37mn
    Bit rate mode                    : Constant
    Bit rate                         : 80.0 Kbps
    Channel(s)                       : 2 channels
    Sampling rate                    : 48.0 KHz
    Compression mode                 : Lossy
    Stream size                      : 55.7 MiB (1%)
    Title                            : Commentary 1
    Writing library                  : libVorbis 1.1.1/1.1.2 (UTC 2005-03-04)
    Language                         : English
    
    Audio #3
    ID                               : 4
    Format                           : Vorbis
    Format settings, Floor           : 1
    Codec ID                         : A_VORBIS
    Duration                         : 1h 37mn
    Bit rate mode                    : Constant
    Bit rate                         : 80.0 Kbps
    Channel(s)                       : 2 channels
    Sampling rate                    : 48.0 KHz
    Compression mode                 : Lossy
    Stream size                      : 55.7 MiB (1%)
    Title                            : Commentary 2
    Writing library                  : libVorbis 1.1.1/1.1.2 (UTC 2005-03-04)
    Language                         : English
    
    Text #1
    ID                               : 5
    Format                           : ASS
    Codec ID                         : S_TEXT/ASS
    Codec ID/Info                    : Advanced Sub Station Alpha
    Compression mode                 : Lossless
    Title                            : Without lyrics
    Language                         : English
    
    Text #2
    ID                               : 6
    Format                           : ASS
    Codec ID                         : S_TEXT/ASS
    Codec ID/Info                    : Advanced Sub Station Alpha
    Compression mode                 : Lossless
    Title                            : With lyrics
    Language                         : English
    
    Text #3
    ID                               : 7
    Format                           : ASS
    Codec ID                         : S_TEXT/ASS
    Codec ID/Info                    : Advanced Sub Station Alpha
    Compression mode                 : Lossless
    Language                         : Bulgarian
    
    Text #4
    ID                               : 8
    Format                           : ASS
    Codec ID                         : S_TEXT/ASS
    Codec ID/Info                    : Advanced Sub Station Alpha
    Compression mode                 : Lossless
    Language                         : Czech
    
    Text #5
    ID                               : 9
    Format                           : ASS
    Codec ID                         : S_TEXT/ASS
    Codec ID/Info                    : Advanced Sub Station Alpha
    Compression mode                 : Lossless
    Language                         : Dutch
    
    Text #6
    ID                               : 10
    Format                           : ASS
    Codec ID                         : S_TEXT/ASS
    Codec ID/Info                    : Advanced Sub Station Alpha
    Compression mode                 : Lossless
    Language                         : French
    
    Text #7
    ID                               : 11
    Format                           : ASS
    Codec ID                         : S_TEXT/ASS
    Codec ID/Info                    : Advanced Sub Station Alpha
    Compression mode                 : Lossless
    Language                         : Greek
    
    Text #8
    ID                               : 12
    Format                           : ASS
    Codec ID                         : S_TEXT/ASS
    Codec ID/Info                    : Advanced Sub Station Alpha
    Compression mode                 : Lossless
    Language                         : Hungarian
    
    Text #9
    ID                               : 13
    Format                           : ASS
    Codec ID                         : S_TEXT/ASS
    Codec ID/Info                    : Advanced Sub Station Alpha
    Compression mode                 : Lossless
    Language                         : Portuguese
    
    Text #10
    ID                               : 14
    Format                           : ASS
    Codec ID                         : S_TEXT/ASS
    Codec ID/Info                    : Advanced Sub Station Alpha
    Compression mode                 : Lossless
    Language                         : Romanian
    
    Text #11
    ID                               : 15
    Format                           : ASS
    Codec ID                         : S_TEXT/ASS
    Codec ID/Info                    : Advanced Sub Station Alpha
    Compression mode                 : Lossless
    Language                         : Slovak
    
    Text #12
    ID                               : 16
    Format                           : ASS
    Codec ID                         : S_TEXT/ASS
    Codec ID/Info                    : Advanced Sub Station Alpha
    Compression mode                 : Lossless
    Language                         : Spanish
    
    Text #13
    ID                               : 17
    Format                           : ASS
    Codec ID                         : S_TEXT/ASS
    Codec ID/Info                    : Advanced Sub Station Alpha
    Compression mode                 : Lossless
    Language                         : Swedish
    
    

    Show DOWNLOAD

    Code:
    SILAHKAN DIBACA DAHULU
    Download semua file. Join dengan HJSplit
    Untuk tanya masalah server IDWS silahkan ke SINI
    Cek Checksum pakai exactfile
    Bingung cara checksum? Bisa di cek disini
    
    Kalo ada masalah silahkan lapor via PM atau VM
    
    
    You must click 'Thank You' before you can see the data contained here.
    You do not have sufficient rights to see the hidden data contained here.

  15. Who Said Thanks:

    There are too many to display.

  16. #240

    Join Date
    Apr 2009
    Location
    Earth
    Posts
    28,542
    Thank(s)
    130/153,306
    Blog Entries
    2
    Rep Power
    46

    Default

    The New World -Extended Cut (2005) 720p

    Show INFO
    Code:
    General
    Unique ID                        : 243180087206203847683975380302315819060 (0xB6F2C7FB9A76631ABB932D77DE9E9034)
    Complete name                    : E:\HD Movie 2\The New World [2005] [720p]\The New World -Extended Cut (2005) 720p.mkv
    Format                           : Matroska
    File size                        : 7.96 GiB
    Duration                         : 2h 51mn
    Overall bit rate                 : 6 629 Kbps
    Encoded date                     : UTC 2009-09-28 15:08:33
    Writing application              : mkvmerge v2.9.7 ('Tenderness') built on Jul  1 2009 18:43:35
    Writing library                  : libebml v0.7.7 + libmatroska v0.8.1
    Cover                            : Yes / Yes / Yes
    
    Video
    ID                               : 1
    Format                           : AVC
    Format/Info                      : Advanced Video Codec
    Format profile                   : High@L4.1
    Format settings, CABAC           : Yes
    Format settings, ReFrames        : 6 frames
    Codec ID                         : V_MPEG4/ISO/AVC
    Duration                         : 2h 51mn
    Bit rate                         : 5 987 Kbps
    Width                            : 1 280 pixels
    Height                           : 544 pixels
    Display aspect ratio             : 2.35:1
    Frame rate                       : 23.976 fps
    Color space                      : YUV
    Chroma subsampling               : 4:2:0
    Bit depth                        : 8 bits
    Scan type                        : Progressive
    Bits/(Pixel*Frame)               : 0.359
    Stream size                      : 7.03 GiB (88%)
    Writing library                  : x264 core 76 r1271M 496d79d
    Encoding settings                : cabac=1 / ref=6 / deblock=1:-3:-3 / analyse=0x3:0x113 / me=umh / subme=9 / psy=1 / psy_rd=0.7:0.0 / mixed_ref=1 / me_range=48 / chroma_me=1 / trellis=2 / 8x8dct=1 / cqm=0 / deadzone=21,11 / chroma_qp_offset=-2 / threads=6 / nr=0 / decimate=0 / mbaff=0 / bframes=6 / b_pyramid=1 / b_adapt=2 / b_bias=0 / direct=3 / wpredb=1 / keyint=250 / keyint_min=25 / scenecut=40 / rc=2pass / mbtree=0 / bitrate=5987 / ratetol=1.0 / qcomp=0.60 / qpmin=10 / qpmax=51 / qpstep=4 / cplxblur=20.0 / qblur=0.5 / ip_ratio=1.40 / pb_ratio=1.30 / aq=1:0.80
    Language                         : English
    
    Audio
    ID                               : 2
    Format                           : AC-3
    Format/Info                      : Audio Coding 3
    Mode extension                   : CM (complete main)
    Codec ID                         : A_AC3
    Duration                         : 2h 51mn
    Bit rate mode                    : Constant
    Bit rate                         : 640 Kbps
    Channel(s)                       : 6 channels
    Channel positions                : Front: L C R, Side: L R, LFE
    Sampling rate                    : 48.0 KHz
    Bit depth                        : 16 bits
    Compression mode                 : Lossy
    Stream size                      : 787 MiB (10%)
    Title                            : AC3 5.1 @ 640 Kbps
    Language                         : English
    
    Text
    ID                               : 3
    Format                           : ASS
    Codec ID                         : S_TEXT/ASS
    Codec ID/Info                    : Advanced Sub Station Alpha
    Compression mode                 : Lossless
    Language                         : English
    
    

    Show DOWNLOAD

    Code:
    SILAHKAN DIBACA DAHULU
    Download semua file. Join dengan HJSplit
    Untuk tanya masalah server IDWS silahkan ke SINI
    Cek Checksum pakai exactfile
    Bingung cara checksum? Bisa di cek disini
    
    Kalo ada masalah silahkan lapor via PM atau VM
    
    
    You must click 'Thank You' before you can see the data contained here.
    You do not have sufficient rights to see the hidden data contained here.

  17. Who Said Thanks:

    There are too many to display.

Page 24 of 499 FirstFirst ... 142021222324252627283474124 ... LastLast

Bookmarks

Posting Permissions

  • You may not post new threads
  • You may not post replies
  • You may not post attachments
  • You may not edit your posts
  •  
Indowebster is proudly powered by PT. Gudang Data Indonesia