Page 25 of 499 FirstFirst ... 152122232425262728293575125 ... LastLast
Results 241 to 250 of 4981

Thread: [Archive] HD Collection | Link Lokal ONLY | Part II
http://idws.in/178115

  1. #241

    Join Date
    Apr 2009
    Location
    Earth
    Posts
    28,544
    Thank(s)
    364/153,241
    Blog Entries
    2
    Rep Power
    46

    Default

    Johnny.English.2003.720p.HDTV.x264-THOR

    Show INFO
    Code:
    General
    Unique ID                        : 174634290514238514692731968784445318056 (0x83615747F68B3476842054DAAD19A3A8)
    Complete name                    : F:\HD Movie 3\Johnny.English.2003.720p.HDTV.x264-THOR-hdmvovie.vn\Johnny.English.2003.720p.HDTV.x264-THOR.mkv
    Format                           : Matroska
    File size                        : 4.62 GiB
    Duration                         : 1h 27mn
    Overall bit rate                 : 7 561 Kbps
    Encoded date                     : UTC 2008-11-28 06:05:23
    Writing application              : mkvmerge v2.4.0 ('Fumbling Towards Ecstasy') built on Oct 11 2008 20:13:15
    Writing library                  : libebml v0.7.7 + libmatroska v0.8.1
    
    Video
    ID                               : 1
    Format                           : AVC
    Format/Info                      : Advanced Video Codec
    Format profile                   : High@L5.1
    Format settings, CABAC           : Yes
    Format settings, ReFrames        : 8 frames
    Codec ID                         : V_MPEG4/ISO/AVC
    Duration                         : 1h 27mn
    Bit rate                         : 6 784 Kbps
    Width                            : 1 280 pixels
    Height                           : 720 pixels
    Display aspect ratio             : 16:9
    Frame rate                       : 23.976 fps
    Color space                      : YUV
    Chroma subsampling               : 4:2:0
    Bit depth                        : 8 bits
    Scan type                        : Progressive
    Bits/(Pixel*Frame)               : 0.307
    Stream size                      : 4.06 GiB (88%)
    Title                            : x264
    Writing library                  : x264 core 48 svn-537M
    Encoding settings                : cabac=1 / ref=5 / deblock=1:0:0 / analyse=0x3:0x133 / me=hex / subme=6 / brdo=1 / mixed_ref=1 / me_range=16 / chroma_me=1 / trellis=1 / 8x8dct=1 / cqm=0 / chroma_qp_offset=0 / slices=2 / nr=0 / decimate=1 / bframes=3 / b_pyramid=1 / b_adapt=1 / b_bias=0 / direct=1 / wpredb=1 / bime=1 / keyint=250 / keyint_min=25 / scenecut=40 / rc=2pass / bitrate=6784 / ratetol=1.0 / rceq='blurCplx^(1-qComp)' / qcomp=0.60 / qpmin=10 / qpmax=51 / qpstep=4 / cplxblur=20.0 / qblur=0.5 / ip_ratio=1.40 / pb_ratio=1.30
    Language                         : English
    
    Audio #1
    ID                               : 2
    Format                           : AC-3
    Format/Info                      : Audio Coding 3
    Mode extension                   : CM (complete main)
    Codec ID                         : A_AC3
    Duration                         : 1h 27mn
    Bit rate mode                    : Constant
    Bit rate                         : 384 Kbps
    Channel(s)                       : 6 channels
    Channel positions                : Front: L C R, Side: L R, LFE
    Sampling rate                    : 48.0 KHz
    Bit depth                        : 16 bits
    Compression mode                 : Lossy
    Stream size                      : 240 MiB (5%)
    Title                            : AC3 384 Kbps
    Language                         : English
    
    Audio #2
    ID                               : 3
    Format                           : AC-3
    Format/Info                      : Audio Coding 3
    Mode extension                   : CM (complete main)
    Codec ID                         : A_AC3
    Duration                         : 1h 27mn
    Bit rate mode                    : Constant
    Bit rate                         : 384 Kbps
    Channel(s)                       : 6 channels
    Channel positions                : Front: L C R, Side: L R, LFE
    Sampling rate                    : 48.0 KHz
    Bit depth                        : 16 bits
    Compression mode                 : Lossy
    Stream size                      : 240 MiB (5%)
    Title                            : AC3 384 Kbps
    Language                         : Russian
    
    Text #1
    ID                               : 4
    Format                           : VobSub
    Muxing mode                      : zlib
    Codec ID                         : S_VOBSUB
    Codec ID/Info                    : The same subtitle format used on DVDs
    Language                         : English
    
    Text #2
    ID                               : 5
    Format                           : VobSub
    Muxing mode                      : zlib
    Codec ID                         : S_VOBSUB
    Codec ID/Info                    : The same subtitle format used on DVDs
    Language                         : Russian
    
    

    Show DOWNLOAD

    Code:
    SILAHKAN DIBACA DAHULU
    Download semua file. Join dengan HJSplit
    Untuk tanya masalah server IDWS silahkan ke SINI
    Cek Checksum pakai exactfile
    Bingung cara checksum? Bisa di cek disini
    
    Kalo ada masalah silahkan lapor via PM atau VM
    
    
    You must click 'Thank You' before you can see the data contained here.
    You do not have sufficient rights to see the hidden data contained here.
    Last edited by Thinl; 05-02-2012 at 09:51 PM.

  2. Who Said Thanks:

    There are too many to display.

  3. #242

    Join Date
    Apr 2009
    Location
    Earth
    Posts
    28,544
    Thank(s)
    151/153,241
    Blog Entries
    2
    Rep Power
    46

    Default

    From Prada to Nada (2011) 720p-CHD

    Show INFO
    Code:
    
    General
    Unique ID                        : 177072379205214974361087349554735440943 (0x8536E6559767B8E4AE07EC383C0F642F)
    Complete name                    : G:\Rampok\From Prada to Nada (2011) 720p-CHD\From Prada to Nada (2011) 720p-CHD.mkv
    Format                           : Matroska
    File size                        : 5.45 GiB
    Duration                         : 1h 46mn
    Overall bit rate                 : 7 325 Kbps
    Encoded date                     : UTC 2011-04-14 12:40:28
    Writing application              : mkvmerge v3.2.0 ('Beginnings') 编译于 Feb 12 2010 16:46:17
    Writing library                  : libebml v0.7.9 + libmatroska v0.8.1
    
    Video
    ID                               : 1
    Format                           : AVC
    Format/Info                      : Advanced Video Codec
    Format profile                   : High@L4.1
    Format settings, CABAC           : Yes
    Format settings, ReFrames        : 9 frames
    Codec ID                         : V_MPEG4/ISO/AVC
    Duration                         : 1h 46mn
    Bit rate                         : 5 814 Kbps
    Width                            : 1 280 pixels
    Height                           : 720 pixels
    Display aspect ratio             : 16:9
    Frame rate                       : 23.976 fps
    Color space                      : YUV
    Chroma subsampling               : 4:2:0
    Bit depth                        : 8 bits
    Scan type                        : Progressive
    Bits/(Pixel*Frame)               : 0.263
    Stream size                      : 4.22 GiB (77%)
    Title                            : From.Prada.to.Nada.2011.BluRay.720p.DTS.x264-CHD
    Writing library                  : x264 core 102 r1666 d058f37
    Encoding settings                : cabac=1 / ref=9 / deblock=1:-3:-3 / analyse=0x3:0x113 / me=umh / subme=10 / psy=1 / psy_rd=1.05:0.10 / mixed_ref=1 / me_range=32 / chroma_me=1 / trellis=2 / 8x8dct=1 / cqm=2 / deadzone=21,11 / fast_pskip=0 / chroma_qp_offset=-2 / threads=6 / sliced_threads=0 / nr=0 / decimate=1 / interlaced=0 / constrained_intra=0 / bframes=6 / b_pyramid=2 / b_adapt=2 / b_bias=0 / direct=3 / weightb=1 / open_gop=0 / weightp=2 / keyint=250 / keyint_min=25 / scenecut=40 / intra_refresh=0 / rc_lookahead=40 / rc=2pass / mbtree=1 / bitrate=5814 / ratetol=1.0 / qcomp=0.60 / qpmin=10 / qpmax=51 / qpstep=4 / cplxblur=20.0 / qblur=0.5 / vbv_maxrate=50000 / vbv_bufsize=50000 / ip_ratio=1.40 / aq=1:0.80 / nal_hrd=none
    Language                         : English
    
    Audio
    ID                               : 2
    Format                           : DTS
    Format/Info                      : Digital Theater Systems
    Codec ID                         : A_DTS
    Duration                         : 1h 46mn
    Bit rate mode                    : Constant
    Bit rate                         : 1 510 Kbps
    Channel(s)                       : 6 channels
    Channel positions                : Front: L C R, Side: L R, LFE
    Sampling rate                    : 48.0 KHz
    Bit depth                        : 24 bits
    Compression mode                 : Lossy
    Stream size                      : 1.12 GiB (21%)
    Title                            : From.Prada.to.Nada.2011.DTS-HD.MA Core_1509kbps
    
    
    

    Show DOWNLOAD

    Code:
    SILAHKAN DIBACA DAHULU
    Download semua file. Join dengan HJSplit
    Untuk tanya masalah server IDWS silahkan ke SINI
    Cek Checksum pakai exactfile
    Bingung cara checksum? Bisa di cek disini
    
    Kalo ada masalah silahkan lapor via PM atau VM
    
    
    You must click 'Thank You' before you can see the data contained here.
    You do not have sufficient rights to see the hidden data contained here.

  4. Who Said Thanks:

    There are too many to display.

  5. #243

    Join Date
    Apr 2009
    Location
    Earth
    Posts
    28,544
    Thank(s)
    80/153,241
    Blog Entries
    2
    Rep Power
    46

    Default

    Eraser [1996] [720p]

    Show INFO
    Code:
    
    General
    Unique ID                        : 194347855766631826649029890145597349500 (0x92360916D861FC80965A6CD14A615E7C)
    Complete name                    : D:\HD Movie 1\Eraser [720p]\Eraser.mkv
    Format                           : Matroska
    File size                        : 4.37 GiB
    Duration                         : 1h 54mn
    Overall bit rate                 : 5 463 Kbps
    Encoded date                     : UTC 2008-08-30 15:39:51
    Writing application              : mkvmerge v2.2.0 ('Turn It On Again') built on Mar  4 2008 12:58:26
    Writing library                  : libebml v0.7.7 + libmatroska v0.8.1
    
    Video
    ID                               : 1
    Format                           : AVC
    Format/Info                      : Advanced Video Codec
    Format profile                   : High@L3.1
    Format settings, CABAC           : Yes
    Format settings, ReFrames        : 5 frames
    Codec ID                         : V_MPEG4/ISO/AVC
    Duration                         : 1h 54mn
    Bit rate                         : 4 820 Kbps
    Width                            : 1 280 pixels
    Height                           : 528 pixels
    Display aspect ratio             : 2.40:1
    Frame rate                       : 23.976 fps
    Color space                      : YUV
    Chroma subsampling               : 4:2:0
    Bit depth                        : 8 bits
    Scan type                        : Progressive
    Bits/(Pixel*Frame)               : 0.297
    Stream size                      : 3.77 GiB (86%)
    Writing library                  : x264 core 60 r951 445d87e
    Encoding settings                : cabac=1 / ref=5 / deblock=1:0:0 / analyse=0x3:0x113 / me=umh / subme=7 / brdo=1 / mixed_ref=1 / me_range=16 / chroma_me=1 / trellis=1 / 8x8dct=1 / cqm=0 / deadzone=21,11 / chroma_qp_offset=0 / threads=6 / nr=0 / decimate=1 / mbaff=0 / bframes=3 / b_pyramid=1 / b_adapt=1 / b_bias=0 / direct=1 / wpredb=1 / bime=1 / keyint=250 / keyint_min=25 / scenecut=40(pre) / rc=2pass / bitrate=4820 / ratetol=1.0 / rceq='blurCplx^(1-qComp)' / qcomp=1.00 / qpmin=10 / qpmax=51 / qpstep=4 / cplxblur=20.0 / qblur=0.5 / ip_ratio=1.40 / pb_ratio=1.30 / aq=2:1.00
    Language                         : English
    
    Audio
    ID                               : 2
    Format                           : AC-3
    Format/Info                      : Audio Coding 3
    Mode extension                   : CM (complete main)
    Codec ID                         : A_AC3
    Duration                         : 1h 54mn
    Bit rate mode                    : Constant
    Bit rate                         : 640 Kbps
    Channel(s)                       : 6 channels
    Channel positions                : Front: L C R, Side: L R, LFE
    Sampling rate                    : 48.0 KHz
    Bit depth                        : 16 bits
    Compression mode                 : Lossy
    Stream size                      : 524 MiB (12%)
    Language                         : English
    
    Text
    ID                               : 3
    Format                           : UTF-8
    Codec ID                         : S_TEXT/UTF8
    Codec ID/Info                    : UTF-8 Plain Text
    Language                         : English
    
    
    

    Show DOWNLOAD

    Code:
    SILAHKAN DIBACA DAHULU
    Download semua file. Join dengan HJSplit
    Untuk tanya masalah server IDWS silahkan ke SINI
    Cek Checksum pakai exactfile
    Bingung cara checksum? Bisa di cek disini
    
    Kalo ada masalah silahkan lapor via PM atau VM
    
    
    You must click 'Thank You' before you can see the data contained here.
    You do not have sufficient rights to see the hidden data contained here.

  6. Who Said Thanks:

    There are too many to display.

  7. #244

    Join Date
    Apr 2009
    Location
    Earth
    Posts
    28,544
    Thank(s)
    162/153,241
    Blog Entries
    2
    Rep Power
    46

    Default

    A Perfect Getaway (2009) 1080p BluRay-METiS

    Show INFO
    Code:
    
    General
    Unique ID                        : 223145432487736512365076837555393074731 (0xA7E03F3DE4302BA48FB7BF2E9C31162B)
    Complete name                    : G:\Rampok\A Perfect Getaway (2009) 1080p BluRay-METiS\A Perfect Getaway (2009) 1080p BluRay-METiS.mkv
    Format                           : Matroska
    File size                        : 8.75 GiB
    Duration                         : 1h 47mn
    Overall bit rate                 : 11.6 Mbps
    Encoded date                     : UTC 2009-11-26 13:18:12
    Writing application              : mkvmerge v2.9.7 ('Tenderness') built on Jul  1 2009 18:43:35
    Writing library                  : libebml v0.7.7 + libmatroska v0.8.1
    
    Video
    ID                               : 1
    Format                           : AVC
    Format/Info                      : Advanced Video Codec
    Format profile                   : High@L4.1
    Format settings, CABAC           : Yes
    Format settings, ReFrames        : 5 frames
    Codec ID                         : V_MPEG4/ISO/AVC
    Duration                         : 1h 47mn
    Bit rate                         : 10.1 Mbps
    Width                            : 1 920 pixels
    Height                           : 816 pixels
    Display aspect ratio             : 2.35:1
    Frame rate                       : 23.976 fps
    Color space                      : YUV
    Chroma subsampling               : 4:2:0
    Bit depth                        : 8 bits
    Scan type                        : Progressive
    Bits/(Pixel*Frame)               : 0.269
    Stream size                      : 7.44 GiB (85%)
    Writing library                  : x264 core 79 r1342 e8501ef
    Encoding settings                : cabac=1 / ref=5 / deblock=1:0:0 / analyse=0x3:0x133 / me=umh / subme=7 / psy=1 / psy_rd=1.0:0.0 / mixed_ref=1 / me_range=16 / chroma_me=1 / trellis=1 / 8x8dct=1 / cqm=0 / deadzone=21,11 / chroma_qp_offset=-2 / threads=12 / nr=0 / decimate=1 / mbaff=0 / constrained_intra=0 / bframes=3 / b_pyramid=0 / b_adapt=1 / b_bias=0 / direct=1 / wpredb=1 / wpredp=2 / keyint=250 / keyint_min=25 / scenecut=40 / rc_lookahead=40 / rc=2pass / mbtree=1 / bitrate=10122 / ratetol=1.0 / qcomp=0.60 / qpmin=10 / qpmax=51 / qpstep=4 / cplxblur=20.0 / qblur=0.5 / ip_ratio=1.40 / aq=1:1.00
    Language                         : English
    
    Audio
    ID                               : 2
    Format                           : DTS
    Format/Info                      : Digital Theater Systems
    Codec ID                         : A_DTS
    Duration                         : 1h 47mn
    Bit rate mode                    : Constant
    Bit rate                         : 1 510 Kbps
    Channel(s)                       : 6 channels
    Channel positions                : Front: L C R, Side: L R, LFE
    Sampling rate                    : 48.0 KHz
    Bit depth                        : 24 bits
    Compression mode                 : Lossy
    Stream size                      : 1.14 GiB (13%)
    
    
    

    Show DOWNLOAD

    Code:
    SILAHKAN DIBACA DAHULU
    Download semua file. Join dengan HJSplit
    Untuk tanya masalah server IDWS silahkan ke SINI
    Cek Checksum pakai exactfile
    Bingung cara checksum? Bisa di cek disini
    
    Kalo ada masalah silahkan lapor via PM atau VM
    
    
    You must click 'Thank You' before you can see the data contained here.
    You do not have sufficient rights to see the hidden data contained here.

  8. Who Said Thanks:

    There are too many to display.

  9. #245

    Join Date
    Apr 2009
    Location
    Earth
    Posts
    28,544
    Thank(s)
    355/153,241
    Blog Entries
    2
    Rep Power
    46

    Default

    Alice in Wonderland (2010) 1080p

    Show INFO
    Code:
    
    General
    Unique ID                        : 208049796115057439123699770637401265264 (0x9C84EEE7E8F1BADB8B4386E02CF91470)
    Complete name                    : F:\HD Movie 3\Alice in Wonderland 1080p\Alice in Wonderland 1080p.mkv
    Format                           : Matroska
    File size                        : 7.95 GiB
    Duration                         : 1h 48mn
    Overall bit rate                 : 10.5 Mbps
    Encoded date                     : UTC 2008-05-07 23:30:33
    Writing application              : mkvmerge v2.9.8 ('C'est le bon') built on Aug 21 2009 13:21:42
    Writing library                  : libebml v0.7.7 + libmatroska v0.8.1
    
    Video
    ID                               : 1
    Format                           : AVC
    Format/Info                      : Advanced Video Codec
    Format profile                   : High@L4.0
    Format settings, CABAC           : Yes
    Format settings, ReFrames        : 4 frames
    Codec ID                         : V_MPEG4/ISO/AVC
    Duration                         : 1h 48mn
    Bit rate                         : 8 968 Kbps
    Width                            : 1 920 pixels
    Height                           : 1 080 pixels
    Display aspect ratio             : 16:9
    Frame rate                       : 23.976 fps
    Color space                      : YUV
    Chroma subsampling               : 4:2:0
    Bit depth                        : 8 bits
    Scan type                        : Progressive
    Bits/(Pixel*Frame)               : 0.180
    Stream size                      : 6.64 GiB (84%)
    Writing library                  : x264 core 94 r1583 7608d73
    Encoding settings                : cabac=1 / ref=4 / deblock=1:0:0 / analyse=0x3:0x113 / me=umh / subme=7 / psy=1 / psy_rd=1.00:0.20 / mixed_ref=1 / me_range=16 / chroma_me=1 / trellis=1 / 8x8dct=1 / cqm=0 / deadzone=21,11 / fast_pskip=1 / chroma_qp_offset=-3 / threads=12 / sliced_threads=0 / nr=0 / decimate=1 / interlaced=0 / constrained_intra=0 / bframes=3 / b_pyramid=2 / b_adapt=1 / b_bias=0 / direct=3 / weightb=1 / weightp=0 / keyint=250 / keyint_min=25 / scenecut=40 / intra_refresh=0 / rc_lookahead=40 / rc=2pass / mbtree=1 / bitrate=8968 / ratetol=1.0 / qcomp=0.60 / qpmin=10 / qpmax=51 / qpstep=4 / cplxblur=20.0 / qblur=0.5 / ip_ratio=1.40 / aq=1:1.00
    Language                         : English
    
    Audio
    ID                               : 2
    Format                           : DTS
    Format/Info                      : Digital Theater Systems
    Format profile                   : ES
    Codec ID                         : A_DTS
    Duration                         : 1h 48mn
    Bit rate mode                    : Constant
    Bit rate                         : 1 510 Kbps
    Channel(s)                       : 6 channels
    Channel positions                : Front: L C R, Side: L R, LFE
    Sampling rate                    : 48.0 KHz
    Bit depth                        : 24 bits
    Compression mode                 : Lossy
    Stream size                      : 1.15 GiB (14%)
    Language                         : English
    
    Text
    ID                               : 3
    Format                           : UTF-8
    Codec ID                         : S_TEXT/UTF8
    Codec ID/Info                    : UTF-8 Plain Text
    Language                         : English
    
    Menu
    00:00:00.000                     : en:00:00:00.000
    00:04:24.890                     : en:00:04:24.890
    00:10:36.886                     : en:00:10:36.886
    00:18:13.509                     : en:00:18:13.509
    00:24:44.316                     : en:00:24:44.316
    00:28:41.345                     : en:00:28:41.345
    00:36:51.126                     : en:00:36:51.126
    00:46:15.731                     : en:00:46:15.731
    00:52:44.787                     : en:00:52:44.787
    01:04:05.050                     : en:01:04:05.050
    01:10:02.198                     : en:01:10:02.198
    01:15:36.490                     : en:01:15:36.490
    01:23:39.264                     : en:01:23:39.264
    01:34:12.689                     : en:01:34:12.689
    01:36:58.354                     : en:01:36:58.354
    01:40:12.131                     : en:01:40:12.131
    
    
    

    Show

    Code:
    SILAHKAN DIBACA DAHULU
    Download semua file. Join dengan HJSplit
    Untuk tanya masalah server IDWS silahkan ke SINI
    Cek Checksum pakai exactfile
    Bingung cara checksum? Bisa di cek disini
    
    Kalo ada masalah silahkan lapor via PM atau VM
    
    
    You must click 'Thank You' before you can see the data contained here.
    You do not have sufficient rights to see the hidden data contained here.
    Last edited by Thinl; 16-02-2012 at 08:09 AM.

  10. Who Said Thanks:

    There are too many to display.

  11. #246

    Join Date
    Aug 2010
    Location
    WonderLand
    Posts
    11
    Thank(s)
    0/18
    Rep Power
    0

    Default

    Quote Originally Posted by kalempong_cie View Post


    coba PM uploadernya..
    Uploadernya ga tau kemana ni, PM kepenuhan

  12. #247

    Join Date
    May 2011
    Location
    bit.ly/pTD432
    Posts
    187
    Thank(s)
    0/90
    Rep Power
    0

    Default

    Maaf klo pertanyaan nubi..

    Cara recover saat join file2 .rar yg error gmn ya..
    Mau joining:
    X-Men.First.Class.2011.BluRay.1080p.x264.DTS.AC3.2Au dio-HDChina
    Error euy.. Responnya:
    Code:
    D:\My Movies\X-Men First Class 1080p (2011)\X-Men.First.Class.2011.BluRay.1080p.x264.DTS.AC3.2Audio-HDChina.part12.rar: CRC failed in X-Men.First.Class.2011.BluRay.1080p.x264.DTS.AC3.2Audio-HDChina\X-Men.First.Class.2011.BluRay.1080p.x264.DTS.AC3.2Audio-HDChina.mkv. The file is corrupt
    Gak ada checksumnya, jadi g tau file mana yg error..

    Thx pencerahannya. :)
    Last edited by kalempong_cie; 07-09-2011 at 07:53 AM.

  13. #248

    Join Date
    Oct 2008
    Location
    Home
    Posts
    93
    Thank(s)
    0/4
    Rep Power
    0

    Default

    Pake winrar bisa direcover, klo yg nge-rar sebelumnya bikin recovery recordnya. Ga salah itu X-men first classnya yg diupload Cailne kan? udah ada recovery recordnya, tinggal pake winrar dicek buat diperbaiki.

  14. #249

    Join Date
    Apr 2009
    Location
    Earth
    Posts
    28,544
    Thank(s)
    0/153,241
    Blog Entries
    2
    Rep Power
    46

    Default

    Quote Originally Posted by kalempong_cie View Post
    Maaf klo pertanyaan nubi..

    Cara recover saat join file2 .rar yg error gmn ya..
    Mau joining:


    Error euy.. Responnya:
    Code:
    D:\My Movies\X-Men First Class 1080p (2011)\X-Men.First.Class.2011.BluRay.1080p.x264.DTS.AC3.2Audio-HDChina.part12.rar: CRC failed in X-Men.First.Class.2011.BluRay.1080p.x264.DTS.AC3.2Audio-HDChina\X-Men.First.Class.2011.BluRay.1080p.x264.DTS.AC3.2Audio-HDChina.mkv. The file is corrupt
    Gak ada checksumnya, jadi g tau file mana yg error..

    Thx pencerahannya. :)
    http://symbianize.com/showthread.php?t=165380

  15. #250

    Join Date
    Mar 2010
    Location
    sda-sby pp
    Posts
    68
    Thank(s)
    0/10
    Rep Power
    0

    Default

    server idws lg eror ya.. drtd ga bisa masuk link donlotnya..

Page 25 of 499 FirstFirst ... 152122232425262728293575125 ... LastLast

Bookmarks

Posting Permissions

  • You may not post new threads
  • You may not post replies
  • You may not post attachments
  • You may not edit your posts
  •  
Indowebster is proudly powered by PT. Gudang Data Indonesia