Page 27 of 499 FirstFirst ... 172324252627282930313777127 ... LastLast
Results 261 to 270 of 4981

Thread: [Archive] HD Collection | Link Lokal ONLY | Part II
http://idws.in/178115

  1. #261

    Join Date
    Jul 2009
    Location
    Bandung
    Posts
    6,732
    Thank(s)
    0/3,197
    Rep Power
    11

    Default

    Quote Originally Posted by livefree View Post
    Untuk yang X-Men ini memang ga ada checksum-nya ya?
    Ane coba ubek-ubek per page ga ada yg share checksum.

    Thanks
    memang ga ada... tenang aja... format rar sendiri udah ada cheksum checker nya sendiri jadi kalo ada yg error bisa ketahuan part berapanya... lagian kalo pun ada yg error bisa di repair cz dia ada recovery 10%... gw sendiri dah download dan play, lancar kok...
    Please correct me, if I made spelling or grammar error, and misleading content.

  2. #262

    Join Date
    Jul 2011
    Location
    dimana saja
    Posts
    1,260
    Thank(s)
    226/59,436
    Rep Power
    3

    Default

    Bridesmaids.2011.720p.BluRay.x264-REFiNED


    Show INFO

    Code:
    General
    Unique ID                        : 213355277355044967498100282097527346469 (0xA082BB53A5CF35E0B19628E3835AD525)
    Complete name                    : refined-bridesmaids-720p.mkv
    Format                           : Matroska
    File size                        : 6.56 GiB
    Duration                         : 2h 10mn
    Overall bit rate                 : 7 208 Kbps
    Encoded date                     : UTC 2011-09-06 03:39:41
    Writing application              : mkvmerge v4.8.0 ('I Got The...') built on May 24 2011 03:12:58
    Writing library                  : libebml v1.2.0 + libmatroska v1.1.0
    
    Video
    ID                               : 1
    Format                           : AVC
    Format/Info                      : Advanced Video Codec
    Format profile                   : High@L4.1
    Format settings, CABAC           : Yes
    Format settings, ReFrames        : 5 frames
    Muxing mode                      : Header stripping
    Codec ID                         : V_MPEG4/ISO/AVC
    Duration                         : 2h 10mn
    Bit rate                         : 5 701 Kbps
    Width                            : 1 280 pixels
    Height                           : 536 pixels
    Display aspect ratio             : 2.35:1
    Frame rate                       : 23.976 fps
    Color space                      : YUV
    Chroma subsampling               : 4:2:0
    Bit depth                        : 8 bits
    Scan type                        : Progressive
    Bits/(Pixel*Frame)               : 0.347
    Stream size                      : 5.06 GiB (77%)
    Writing library                  : x264 core 116 r2057 0ba8a9c
    Encoding settings                : cabac=1 / ref=5 / deblock=1:0:0 / analyse=0x3:0x133 / me=umh / subme=7 / psy=1 / 
    
    psy_rd=1.00:0.00 / mixed_ref=1 / me_range=16 / chroma_me=1 / trellis=1 / 8x8dct=1 / cqm=0 / deadzone=21,11 / fast_pskip=0 / 
    
    chroma_qp_offset=-2 / threads=9 / sliced_threads=0 / nr=0 / decimate=1 / interlaced=0 / bluray_compat=0 / constrained_intra=0 / 
    
    bframes=3 / b_pyramid=2 / b_adapt=1 / b_bias=0 / direct=1 / weightb=1 / open_gop=0 / weightp=2 / keyint=250 / keyint_min=23 / 
    
    scenecut=40 / intra_refresh=0 / rc_lookahead=40 / rc=2pass / mbtree=1 / bitrate=5701 / ratetol=1.0 / qcomp=0.60 / qpmin=0 / 
    
    qpmax=69 / qpstep=4 / cplxblur=20.0 / qblur=0.5 / ip_ratio=1.40 / aq=1:1.00
    Language                         : English
    
    Audio
    ID                               : 2
    Format                           : DTS
    Format/Info                      : Digital Theater Systems
    Muxing mode                      : Header stripping
    Codec ID                         : A_DTS
    Duration                         : 2h 10mn
    Bit rate mode                    : Constant
    Bit rate                         : 1 510 Kbps
    Channel(s)                       : 6 channels
    Channel positions                : Front: L C R, Side: L R, LFE
    Sampling rate                    : 48.0 KHz
    Bit depth                        : 24 bits
    Compression mode                 : Lossy
    Stream size                      : 1.37 GiB (21%)
    Language                         : English



    Show DOWNLOAD


    You must click 'Thank You' before you can see the data contained here.
    You do not have sufficient rights to see the hidden data contained here.

    Last edited by Semplice; 29-09-2011 at 04:02 PM. Reason: reupload

  3. Who Said Thanks:

    There are too many to display.

  4. #263

    Join Date
    Jul 2011
    Location
    dimana saja
    Posts
    1,260
    Thank(s)
    114/59,436
    Rep Power
    3

    Default

    Marley.And.Me.The.Puppy.Years.2011.720p.BluRay.x26 4-SEMTEX


    Show INFO

    Code:
    General
    Unique ID                        : 194792650504420426986491274158386707311 (0x928BB329B79252F798152A11135FFB6F)
    Complete name                    : sem-marleypup.720p.mkv
    Format                           : Matroska
    File size                        : 4.36 GiB
    Duration                         : 1h 26mn
    Overall bit rate                 : 7 249 Kbps
    Movie name                       : sem-marleypup720p
    Encoded date                     : UTC 2011-08-19 09:02:45
    Writing application              : mkvmerge v4.6.0 ('Still Crazy After All These Years') built on Mar 10 2011 02:50:32
    Writing library                  : libebml v1.2.0 + libmatroska v1.1.0
    
    Video
    ID                               : 1
    Format                           : AVC
    Format/Info                      : Advanced Video Codec
    Format profile                   : High@L4.1
    Format settings, CABAC           : Yes
    Format settings, ReFrames        : 5 frames
    Codec ID                         : V_MPEG4/ISO/AVC
    Duration                         : 1h 26mn
    Bit rate mode                    : Variable
    Bit rate                         : 5 737 Kbps
    Maximum bit rate                 : 8 000 Kbps
    Width                            : 1 280 pixels
    Height                           : 720 pixels
    Display aspect ratio             : 16:9
    Frame rate                       : 23.976 fps
    Color space                      : YUV
    Chroma subsampling               : 4:2:0
    Bit depth                        : 8 bits
    Scan type                        : Progressive
    Bits/(Pixel*Frame)               : 0.260
    Stream size                      : 3.36 GiB (77%)
    Writing library                  : x264 core 116 r2057 0ba8a9c
    Encoding settings                : cabac=1 / ref=5 / deblock=1:0:0 / analyse=0x3:0x133 / me=umh / subme=7 / psy=1 / psy_rd=1.00:0.00 / mixed_ref=1 / 
    
    me_range=16 / chroma_me=1 / trellis=1 / 8x8dct=1 / cqm=0 / deadzone=21,11 / fast_pskip=1 / chroma_qp_offset=-2 / threads=6 / sliced_threads=0 / nr=0 / 
    
    decimate=1 / interlaced=0 / bluray_compat=0 / constrained_intra=0 / bframes=5 / b_pyramid=0 / b_adapt=1 / b_bias=0 / direct=1 / weightb=1 / open_gop=0 / 
    
    weightp=2 / keyint=240 / keyint_min=24 / scenecut=40 / intra_refresh=0 / rc_lookahead=40 / rc=2pass / mbtree=1 / bitrate=5737 / ratetol=1.0 / qcomp=0.60 / 
    
    qpmin=0 / qpmax=69 / qpstep=4 / cplxblur=20.0 / qblur=0.5 / vbv_maxrate=8000 / vbv_bufsize=25000 / nal_hrd=vbr / ip_ratio=1.40 / aq=1:1.00
    
    Audio
    ID                               : 2
    Format                           : DTS
    Format/Info                      : Digital Theater Systems
    Codec ID                         : A_DTS
    Duration                         : 1h 26mn
    Bit rate mode                    : Constant
    Bit rate                         : 1 510 Kbps
    Channel(s)                       : 6 channels
    Channel positions                : Front: L C R, Side: L R, LFE
    Sampling rate                    : 48.0 KHz
    Bit depth                        : 24 bits
    Compression mode                 : Lossy
    Stream size                      : 930 MiB (21%)
    Language                         : English
    
    Text
    ID                               : 3
    Format                           : UTF-8
    Codec ID                         : S_TEXT/UTF8
    Codec ID/Info                    : UTF-8 Plain Text
    Language                         : English



    You must click 'Thank You' before you can see the data contained here.
    You do not have sufficient rights to see the hidden data contained here.


    Code:
    * Download semua file dan join dengan HJSplit
    Last edited by Semplice; 22-09-2011 at 01:43 PM. Reason: reupload

  5. Who Said Thanks:

    There are too many to display.

  6. #264

    Join Date
    May 2011
    Location
    bit.ly/pTD432
    Posts
    187
    Thank(s)
    0/90
    Rep Power
    0

    Default

    Quote Originally Posted by livefree View Post
    Untuk yang X-Men ini memang ga ada checksum-nya ya?
    Ane coba ubek-ubek per page ga ada yg share checksum.

    Thanks
    Extract - Ntar ada notif error, liat part mana yg error - repair pake winrar part yg error

    tuts ada di hal 25

  7. #265

    Join Date
    Nov 2009
    Location
    Tangerang
    Posts
    4
    Thank(s)
    0/3
    Rep Power
    0

    Default

    Quote Originally Posted by hero4dohl View Post
    opsinya mesti ditambah dl

    waktu play klik kanan. option. advanced menu(diklik--> ntar jadi tercentang)
    abis itu klik kanan lagi. pilih audio. pilih antara audio renderer atau stream selection. gw lupa. (skrg di laptop lagi ga ada film dual audio)
    nanti di sana ada 1. rusian. 2. english. tinggal pilih
    klo di wmp gmn munculin advanced menunya yah??
    saya klik kanan kok gk ad advance menunya

  8. #266

    Join Date
    Apr 2010
    Location
    daratan terbuka
    Posts
    1,620
    Thank(s)
    1/2,993
    Rep Power
    6

    Default

    Quote Originally Posted by Squamt View Post
    klo di wmp gmn munculin advanced menunya yah??
    saya klik kanan kok gk ad advance menunya
    yang saya kasi di atas itu untuk
    KMPlayer

    kalau wmp saya kurang tau.

    mkgn bsa dijawab sama yang lain

  9. Who Said Thanks:


  10. #267

    Join Date
    May 2009
    Location
    bandung
    Posts
    54
    Thank(s)
    2/3
    Rep Power
    0

    Default

    Quote Originally Posted by Thinl View Post
    From Prada to Nada (2011) 720p-CHD
    Setelah sempat error part 1 nya ga bs di download krn 0 kb/s terus semalem....akhirnya pagi ini lancar kembali, sepertiny ggn server
    Show sedot



    thanks bwt bro thinl semua part lancar di donlod...tinggal di join and tonton

  11. Who Said Thanks:


  12. #268

    Join Date
    Oct 2008
    Location
    Home
    Posts
    93
    Thank(s)
    0/4
    Rep Power
    0

    Default

    pirates + x-men 720p donlot + diplay lancar :)

  13. #269

    Join Date
    Aug 2009
    Location
    Surabaya
    Posts
    377
    Thank(s)
    0/132
    Rep Power
    0

    Default

    Quote Originally Posted by Thinl View Post
    ntar kalo mau download dicek dulu masing2 linknya, biar gak wasting time kalo ada link yang maintenance atau rusak
    Ngeceknya apa musti dibuka 1-1
    Lumayan repot juga kalo ngecek 80an link...
    Apa ada cara simple/tools buat ngecek link IDWS kaya WGLink

  14. #270

    Join Date
    Apr 2009
    Location
    Earth
    Posts
    28,215
    Thank(s)
    0/149,435
    Blog Entries
    2
    Rep Power
    41

    Default

    Quote Originally Posted by lohankun View Post
    Ngeceknya apa musti dibuka 1-1
    Lumayan repot juga kalo ngecek 80an link...
    Apa ada cara simple/tools buat ngecek link IDWS kaya WGLink
    ya mau gak mau, daripada uda terlanjur download trus kayak gitu, dan uploadernya gak aktif lebih sakitan mana hayo

Page 27 of 499 FirstFirst ... 172324252627282930313777127 ... LastLast

Bookmarks

Posting Permissions

  • You may not post new threads
  • You may not post replies
  • You may not post attachments
  • You may not edit your posts
  •  
Indowebster is proudly powered by PT. Gudang Data Indonesia