Page 29 of 499 FirstFirst ... 192526272829303132333979129 ... LastLast
Results 281 to 290 of 4981

Thread: [Archive] HD Collection | Link Lokal ONLY | Part II
http://idws.in/178115

  1. #281

    Join Date
    Sep 2010
    Location
    bandung
    Posts
    9
    Thank(s)
    1/2
    Rep Power
    0

    Default Age.Of.The.Dragons.2011

    Age.Of.The.Dragons.2011
    Beberapa part ngak bisa
    Temporary not available

    part 5 part 10

    HELP!

  2. Who Said Thanks:


  3. #282

    Join Date
    Jul 2011
    Location
    dimana saja
    Posts
    1,262
    Thank(s)
    56/60,821
    Rep Power
    4

    Default

    Three.Days.Of.The.Condor.1975.1080p.BluRay.x264-HDMI


    Show INFO

    Code:
    General
    Unique ID                        : 173505267108377714677509864916385064098 (0x8287E62125CC9013B9D255E7F744E4A2)
    Complete name                    : three.days.of.the.condor.1975.1080p.bluray.x264-hdmi.mkv
    Format                           : Matroska
    File size                        : 8.75 GiB
    Duration                         : 1h 57mn
    Overall bit rate                 : 10.7 Mbps
    Encoded date                     : UTC 2009-09-29 12:34:36
    Writing application              : mkvmerge v2.9.8 ('C'est le bon') built on Aug 13 2009 12:49:06
    Writing library                  : libebml v0.7.7 + libmatroska v0.8.1
    
    Video
    ID                               : 1
    Format                           : AVC
    Format/Info                      : Advanced Video Codec
    Format profile                   : High@L4.1
    Format settings, CABAC           : Yes
    Format settings, ReFrames        : 5 frames
    Format settings, GOP             : M=4, N=6
    Codec ID                         : V_MPEG4/ISO/AVC
    Duration                         : 1h 57mn
    Bit rate                         : 9 184 Kbps
    Width                            : 1 920 pixels
    Height                           : 800 pixels
    Display aspect ratio             : 2.40:1
    Frame rate                       : 23.976 fps
    Color space                      : YUV
    Chroma subsampling               : 4:2:0
    Bit depth                        : 8 bits
    Scan type                        : Progressive
    Bits/(Pixel*Frame)               : 0.249
    Stream size                      : 7.34 GiB (84%)
    Writing library                  : x264 core 75 r1259M dd026f2
    Encoding settings                : cabac=1 / ref=5 / deblock=1:0:0 / analyse=0x3:0x2 / me=umh / subme=7 / psy=1 / psy_rd=1.0:0.0 / mixed_ref=1 / me_range=16 
    
    / chroma_me=1 / trellis=1 / 8x8dct=1 / cqm=0 / deadzone=21,11 / chroma_qp_offset=-2 / threads=12 / nr=0 / decimate=1 / mbaff=0 / bframes=3 / b_pyramid=1 / 
    
    b_adapt=1 / b_bias=0 / direct=1 / wpredb=1 / keyint=250 / keyint_min=25 / scenecut=40 / rc=2pass / mbtree=0 / bitrate=9184 / ratetol=1.0 / qcomp=0.60 / 
    
    qpmin=10 / qpmax=51 / qpstep=4 / cplxblur=20.0 / qblur=0.5 / ip_ratio=1.40 / pb_ratio=1.30 / aq=1:1.00 / pulldown=0 / nal_hrd=0
    Language                         : English
    
    Audio
    ID                               : 2
    Format                           : DTS
    Format/Info                      : Digital Theater Systems
    Codec ID                         : A_DTS
    Duration                         : 1h 57mn
    Bit rate mode                    : Constant
    Bit rate                         : 1 510 Kbps
    Channel(s)                       : 6 channels
    Channel positions                : Front: L C R, Side: L R, LFE
    Sampling rate                    : 48.0 KHz
    Bit depth                        : 24 bits
    Compression mode                 : Lossy
    Stream size                      : 1.23 GiB (14%)
    Language                         : English
    
    Text
    ID                               : 3
    Format                           : UTF-8
    Codec ID                         : S_TEXT/UTF8
    Codec ID/Info                    : UTF-8 Plain Text
    Language                         : English



    You must click 'Thank You' before you can see the data contained here.
    You do not have sufficient rights to see the hidden data contained here.


    Code:
    * Download semua file dan join dengan HJSplit
    Last edited by Semplice; 07-10-2011 at 11:20 AM. Reason: reupload

  4. Who Said Thanks:

    There are too many to display.

  5. #283

    Join Date
    Apr 2010
    Location
    sandang H2
    Posts
    16
    Thank(s)
    0/23
    Blog Entries
    1
    Rep Power
    0

    Default

    Bro, Faster 2010 dari bang Anthrax kok error ya. dari part 1 -4, bisa tolong di double check ga? Thanks in advance.

  6. #284

    Join Date
    Jan 2011
    Location
    Depok Timur
    Posts
    22
    Thank(s)
    0/29
    Rep Power
    0

    Default

    Bro Thinl kok AEON FLUX 1080p (2005) part 3 nya ga bisa di donlod lg? Minta tolong upload lg donk bro

  7. #285

    Join Date
    Nov 2009
    Location
    semarang
    Posts
    13
    Thank(s)
    0/23
    Rep Power
    0

    Default

    Gan Iron Man 2 Part 4 nya kok page not found y gan... mohon dibenerin gan.. thank u

  8. #286

    Join Date
    Jul 2011
    Location
    dimana saja
    Posts
    1,262
    Thank(s)
    160/60,821
    Rep Power
    4

    Default

    Hanna.2011.720p.BluRay.DTS.x264-CtrlHD


    Show INFO

    Code:
    General
    Unique ID                        : 227729653570347113445001685172014788336 (0xAB5322CA942882DBB823BE2DF7C7AEF0)
    Complete name                    : Hanna.2011.720p.BluRay.DTS.x264-CtrlHD.mkv
    Format                           : Matroska
    File size                        : 4.70 GiB
    Duration                         : 1h 51mn
    Overall bit rate                 : 6 054 Kbps
    Encoded date                     : UTC 2011-08-27 09:14:28
    Writing application              : mkvmerge v4.6.0 ('Still Crazy After All These Years') built on Mar 10 2011 02:50:32
    Writing library                  : libebml v1.2.0 + libmatroska v1.1.0
    
    Video
    ID                               : 1
    Format                           : AVC
    Format/Info                      : Advanced Video Codec
    Format profile                   : High@L4.1
    Format settings, CABAC           : Yes
    Format settings, ReFrames        : 9 frames
    Codec ID                         : V_MPEG4/ISO/AVC
    Duration                         : 1h 51mn
    Nominal bit rate                 : 4 500 Kbps
    Width                            : 1 280 pixels
    Height                           : 534 pixels
    Display aspect ratio             : 2.35:1
    Frame rate                       : 23.976 fps
    Color space                      : YUV
    Chroma subsampling               : 4:2:0
    Bit depth                        : 8 bits
    Scan type                        : Progressive
    Bits/(Pixel*Frame)               : 0.275
    Writing library                  : x264 core 116 r2037 f8ebd4a
    Encoding settings                : cabac=1 / ref=9 / deblock=1:-3:-3 / analyse=0x3:0x133 / me=umh / subme=10 / psy=1 / psy_rd=1.10:0.00 / mixed_ref=1 / 
    
    me_range=48 / chroma_me=1 / trellis=2 / 8x8dct=1 / cqm=0 / deadzone=21,11 / fast_pskip=0 / chroma_qp_offset=-2 / threads=12 / sliced_threads=0 / nr=0 / 
    
    decimate=1 / interlaced=0 / bluray_compat=0 / constrained_intra=0 / bframes=8 / b_pyramid=2 / b_adapt=2 / b_bias=0 / direct=3 / weightb=1 / open_gop=0 / 
    
    weightp=2 / keyint=250 / keyint_min=23 / scenecut=40 / intra_refresh=0 / rc_lookahead=60 / rc=2pass / mbtree=1 / bitrate=4500 / ratetol=1.0 / qcomp=0.70 / 
    
    qpmin=0 / qpmax=69 / qpstep=4 / cplxblur=20.0 / qblur=0.5 / vbv_maxrate=40000 / vbv_bufsize=30000 / nal_hrd=none / ip_ratio=1.40 / aq=1:0.80
    Language                         : English
    
    Audio #1
    ID                               : 2
    Format                           : DTS
    Format/Info                      : Digital Theater Systems
    Codec ID                         : A_DTS
    Duration                         : 1h 51mn
    Bit rate mode                    : Constant
    Bit rate                         : 1 510 Kbps
    Channel(s)                       : 6 channels
    Channel positions                : Front: L C R, Side: L R, LFE
    Sampling rate                    : 48.0 KHz
    Bit depth                        : 24 bits
    Compression mode                 : Lossy
    Stream size                      : 1.17 GiB (25%)
    Language                         : English
    
    Audio #2
    ID                               : 3
    Format                           : AAC
    Format/Info                      : Advanced Audio Codec
    Format profile                   : HE-AAC / LC
    Codec ID                         : A_AAC
    Duration                         : 1h 51mn
    Channel(s)                       : 2 channels
    Channel positions                : Front: L R
    Sampling rate                    : 48.0 KHz / 24.0 KHz
    Compression mode                 : Lossy
    Title                            : Commentary
    Language                         : English
    
    Text #1
    ID                               : 4
    Format                           : UTF-8
    Codec ID                         : S_TEXT/UTF8
    Codec ID/Info                    : UTF-8 Plain Text
    Language                         : English
    
    Text #2
    ID                               : 5
    Format                           : UTF-8
    Codec ID                         : S_TEXT/UTF8
    Codec ID/Info                    : UTF-8 Plain Text
    Language                         : Chinese
    
    Text #3
    ID                               : 6
    Format                           : UTF-8
    Codec ID                         : S_TEXT/UTF8
    Codec ID/Info                    : UTF-8 Plain Text
    Language                         : Czech
    
    Text #4
    ID                               : 7
    Format                           : UTF-8
    Codec ID                         : S_TEXT/UTF8
    Codec ID/Info                    : UTF-8 Plain Text
    Language                         : French
    
    Text #5
    ID                               : 8
    Format                           : UTF-8
    Codec ID                         : S_TEXT/UTF8
    Codec ID/Info                    : UTF-8 Plain Text
    Language                         : Greek
    
    Text #6
    ID                               : 9
    Format                           : UTF-8
    Codec ID                         : S_TEXT/UTF8
    Codec ID/Info                    : UTF-8 Plain Text
    Language                         : Hungarian
    
    Text #7
    ID                               : 10
    Format                           : UTF-8
    Codec ID                         : S_TEXT/UTF8
    Codec ID/Info                    : UTF-8 Plain Text
    Language                         : Norwegian
    
    Text #8
    ID                               : 11
    Format                           : UTF-8
    Codec ID                         : S_TEXT/UTF8
    Codec ID/Info                    : UTF-8 Plain Text
    Language                         : Polish
    
    Text #9
    ID                               : 12
    Format                           : UTF-8
    Codec ID                         : S_TEXT/UTF8
    Codec ID/Info                    : UTF-8 Plain Text
    Language                         : rom
    
    Text #10
    ID                               : 13
    Format                           : UTF-8
    Codec ID                         : S_TEXT/UTF8
    Codec ID/Info                    : UTF-8 Plain Text
    Language                         : Spanish
    
    Text #11
    ID                               : 14
    Format                           : UTF-8
    Codec ID                         : S_TEXT/UTF8
    Codec ID/Info                    : UTF-8 Plain Text
    Language                         : Swedish
    
    Text #12
    ID                               : 15
    Format                           : UTF-8
    Codec ID                         : S_TEXT/UTF8
    Codec ID/Info                    : UTF-8 Plain Text
    Language                         : Turkish
    
    Menu
    00:00:00.000                     : en:00:00:00.000
    00:05:21.947                     : en:00:05:21.947
    00:10:54.362                     : en:00:10:54.362
    00:15:08.741                     : en:00:15:08.741
    00:19:59.907                     : en:00:19:59.907
    00:24:30.594                     : en:00:24:30.594
    00:30:07.556                     : en:00:30:07.556
    00:35:18.074                     : en:00:35:18.074
    00:41:34.534                     : en:00:41:34.534
    00:46:17.108                     : en:00:46:17.108
    00:50:06.170                     : en:00:50:06.170
    00:55:35.916                     : en:00:55:35.916
    01:00:43.390                     : en:01:00:43.390
    01:04:27.655                     : en:01:04:27.655
    01:11:47.678                     : en:01:11:47.678
    01:19:58.711                     : en:01:19:58.711
    01:24:50.627                     : en:01:24:50.627
    01:29:35.078                     : en:01:29:35.078
    01:36:45.842                     : en:01:36:45.842
    01:43:25.199                     : en:01:43:25.199


    Show UNDUH IDWS

    Code:
    * Download semua file dan join dengan HJSplit

    You must click 'Thank You' before you can see the data contained here.
    You do not have sufficient rights to see the hidden data contained here.



    Show UNDUH ASIX

    Code:
    * Download semua file dan extract dengan Winrar.
    * Dilengkapi Recovery Record

    You must click 'Thank You' before you can see the data contained here.
    You do not have sufficient rights to see the hidden data contained here.



    Code:
    * Disarankan download dari link IDWS
    * Untuk link ASIX tidak ada reupload, jika ada masalah file apapun.
    Last edited by Semplice; 20-09-2011 at 03:43 PM. Reason: reupload

  9. Who Said Thanks:

    There are too many to display.

  10. #287

    Join Date
    Aug 2011
    Location
    Heaven of Earth
    Posts
    4
    Thank(s)
    0/1
    Rep Power
    0

    Default

    Quote Originally Posted by stutEnak View Post
    Bro Thinl kok AEON FLUX 1080p (2005) part 3 nya ga bisa di donlod lg? Minta tolong upload lg donk bro
    kalo ane nyisa yg part 14 nya nih, storage maintenance muluu..T.T nyesek bgt dah, cmn sisa part itu doang..HELPPP!! upload lg donk ke server yg beda..

  11. #288

    Join Date
    May 2011
    Location
    bit.ly/pTD432
    Posts
    187
    Thank(s)
    1/90
    Rep Power
    0

    Default

    Quote Originally Posted by Cailne View Post
    [CENTER]Thor.2011.1080p.BluRay.x264-SECTOR7
    sukses didonlot dan test sekilas..
    cari waktu pas bwt nonton..

    Thx bro Cailne..
    :)

  12. Who Said Thanks:


  13. #289

    Join Date
    Aug 2009
    Location
    Surabaya
    Posts
    377
    Thank(s)
    0/136
    Rep Power
    0

    Default

    Die.Hard.1988.720p.BluRay.x264-SiNNERS
    68 part udah dicek semua & ngga ada yg server maintenis
    tapi koq part 16-20nya ngga mau di DL...
    Sementara ini aku skip dulu dan skrg lagi DL part 21-25... dst
    enaknya diterusin apa ngga nih Mbak Thinl
    Apa aku ngeceknya kurang mendalem ya...

  14. #290

    Join Date
    Apr 2010
    Location
    sandang H2
    Posts
    16
    Thank(s)
    0/23
    Blog Entries
    1
    Rep Power
    0

    Default

    Eragon | 2006 | 2.2Gb by mbahedan

    Bro, Part 24 nya Corrupt tuh. Bisa tolong di reparasi ? Thanks in advance

Page 29 of 499 FirstFirst ... 192526272829303132333979129 ... LastLast

Bookmarks

Posting Permissions

  • You may not post new threads
  • You may not post replies
  • You may not post attachments
  • You may not edit your posts
  •  
Indowebster is proudly powered by PT. Gudang Data Indonesia