Page 42 of 499 FirstFirst ... 323839404142434445465292142 ... LastLast
Results 411 to 420 of 4981

Thread: [Archive] HD Collection | Link Lokal ONLY | Part II
http://idws.in/178115

  1. #411

    Join Date
    Apr 2009
    Location
    Earth
    Posts
    28,542
    Thank(s)
    1/153,298
    Blog Entries
    2
    Rep Power
    46

    Default

    Quote Originally Posted by admiral_akainu View Post
    Rio | 2011 | 4.36Gb by Thinl
    Part05: The file that you were looking is not available anymore.

    Upload ulang lg dunk kk...
    Quote Originally Posted by Thinl View Post
    Rio.2011.BluRay.720p.x264-ZMG

    uda di reupload, ntar yang belum di reupload yang sabar ya

  2. Who Said Thanks:


  3. #412

    Join Date
    Mar 2009
    Location
    Indonesia
    Posts
    443
    Thank(s)
    0/546
    Rep Power
    0

    Default

    bos ts perfume story of murdurer 1080p 12 GB part 17 broken link gagal donwload..
    bisa tolong diriupload...
    kalo da diriupload tolong dimesssage akunya ya bos.. thx
    There's nothing impossible in these god damn world

  4. #413

    Join Date
    Jul 2011
    Location
    dimana saja
    Posts
    1,262
    Thank(s)
    7/60,841
    Rep Power
    4

    Default

    Quote Originally Posted by Semplice View Post
    Arthur.2011.720p.BluRay.DTS.x264-MHD
    # Sudah direupload

    Quote Originally Posted by Semplice View Post
    Love.Wedding.Marriage.2011.LIMITED.720p.Bluray.x26 4-MHD
    # Sudah direupload

    Quote Originally Posted by Semplice View Post
    The.Final.Destination.2009.1080p.BluRay.x264.DTS-WiKi
    # Sudah direupload

    Quote Originally Posted by Semplice View Post
    Tom.And.Jerry.And.The.Wizard.Of.Oz.2011.1080p.BluR ay.x264-UNTOUCHABLES
    # Sudah direupload
    Last edited by Semplice; 17-09-2011 at 12:12 PM.

  5. Who Said Thanks:


  6. #414

    Join Date
    Aug 2010
    Location
    FC Muhan Dojeon
    Posts
    2,377
    Thank(s)
    0/2,881
    Blog Entries
    1
    Rep Power
    7

    Default

    Quote Originally Posted by Semplice View Post
    # Sudah direupload
    bro semplice mo nanya, yg district 9 [720p] apakah bisa dijadiin .rar @500MB lg?
    di posting sblmnya kan katanya bakal reupload dgn size baru.

    saya uda DL sampe part 14 habis, cuma kurang part 8 & 9 T.T

  7. #415

    Join Date
    Mar 2009
    Location
    sby
    Posts
    35
    Thank(s)
    0/27
    Rep Power
    0

    Default

    Quote Originally Posted by Thinl View Post
    baca pejwan dulu ya
    thx bro inpo-nya, btw gmn bisa tau file yg mo di donlot itu ikut server berapa?
    thx.

  8. #416

    Join Date
    Apr 2009
    Location
    Earth
    Posts
    28,542
    Thank(s)
    0/153,298
    Blog Entries
    2
    Rep Power
    46

    Default

    Quote Originally Posted by gondhez View Post
    thx bro inpo-nya, btw gmn bisa tau file yg mo di donlot itu ikut server berapa?
    thx.
    search aja nama file yang mau di download, ntar keluar keterangan ada diserver berapa

  9. #417

    Join Date
    Apr 2009
    Location
    medan oi..
    Posts
    312
    Thank(s)
    1/91
    Rep Power
    0

    Default

    Quote Originally Posted by Semplice View Post
    Tom.And.Jerry.And.The.Wizard.Of.Oz.2011.1080p.BluR ay.x264-UNTOUCHABLES
    lapor part 6 file not available om.... thanks ya

  10. Who Said Thanks:


  11. #418

    Join Date
    Jul 2011
    Location
    dimana saja
    Posts
    1,262
    Thank(s)
    0/60,841
    Rep Power
    4

    Default

    Quote Originally Posted by XcsNujabes View Post
    bro semplice mo nanya, yg district 9 [720p] apakah bisa dijadiin .rar @500MB lg?
    di posting sblmnya kan katanya bakal reupload dgn size baru.

    saya uda DL sampe part 14 habis, cuma kurang part 8 & 9 T.T
    Size sih sama, tapi yg sudah direupload terakhir ini splitnya ga pake Winrar lagi.
    Jadi harus download dari awal, karena joinnya pake HJSplit.

    Quote Originally Posted by MikCuCu View Post
    lapor part 6 file not available om.... thanks ya
    part 6 udah direupload lagi.
    Last edited by Semplice; 17-09-2011 at 10:53 AM.

  12. #419

    Join Date
    Mar 2010
    Location
    sda-sby pp
    Posts
    68
    Thank(s)
    0/10
    Rep Power
    0

    Default

    Quote Originally Posted by Semplice View Post
    pasti beda sizenya dan harus download ulang dari awal...soalnya emang udah ga simpen lagi part-nya.



    sabar ya bro...
    siap sabar menanti mas bro...

  13. #420

    Join Date
    Jul 2011
    Location
    dimana saja
    Posts
    1,262
    Thank(s)
    140/60,841
    Rep Power
    4

    Default

    Arthur.2011.720p.BluRay.DTS.x264-MHD


    Show INFO

    Code:
    General
    Unique ID                        : 197960586981123490161407036258891587084 (0x94EDD27D8112A4E89046DFA26D13DE0C)
    Complete name                    : Arthur.2011.720p.BluRay.DTS.x264-MHD.mkv
    Format                           : Matroska
    File size                        : 5.46 GiB
    Duration                         : 1h 49mn
    Overall bit rate                 : 7 105 Kbps
    Encoded date                     : UTC 2011-06-25 07:24:51
    Writing application              : mkvmerge v4.8.0 ('I Got The...') built on May 24 2011 03:12:58
    Writing library                  : libebml v1.2.0 + libmatroska v1.1.0
    
    Video
    ID                               : 1
    Format                           : AVC
    Format/Info                      : Advanced Video Codec
    Format profile                   : High@L4.1
    Format settings, CABAC           : Yes
    Format settings, ReFrames        : 5 frames
    Muxing mode                      : Header stripping
    Codec ID                         : V_MPEG4/ISO/AVC
    Duration                         : 1h 49mn
    Bit rate                         : 5 599 Kbps
    Width                            : 1 280 pixels
    Height                           : 720 pixels
    Display aspect ratio             : 16:9
    Frame rate                       : 23.976 fps
    Color space                      : YUV
    Chroma subsampling               : 4:2:0
    Bit depth                        : 8 bits
    Scan type                        : Progressive
    Bits/(Pixel*Frame)               : 0.253
    Stream size                      : 4.19 GiB (77%)
    Writing library                  : x264 core 115 r2008 4c552d8
    Encoding settings                : cabac=1 / ref=5 / deblock=1:0:0 / analyse=0x3:0x133 / me=umh / subme=7 / psy=1 / 
    
    psy_rd=1.00:0.00 / mixed_ref=1 / me_range=16 / chroma_me=1 / trellis=1 / 8x8dct=1 / cqm=0 / deadzone=21,11 / fast_pskip=0 / 
    
    chroma_qp_offset=-2 / threads=12 / sliced_threads=0 / nr=0 / decimate=1 / interlaced=0 / bluray_compat=0 / constrained_intra=0 / 
    
    bframes=3 / b_pyramid=2 / b_adapt=2 / b_bias=0 / direct=3 / weightb=1 / open_gop=0 / weightp=2 / keyint=250 / keyint_min=23 / 
    
    scenecut=40 / intra_refresh=0 / rc_lookahead=50 / rc=2pass / mbtree=1 / bitrate=5599 / ratetol=1.0 / qcomp=0.60 / qpmin=0 / 
    
    qpmax=69 / qpstep=4 / cplxblur=20.0 / qblur=0.5 / ip_ratio=1.40 / aq=1:1.00
    Language                         : English
    
    Audio
    ID                               : 2
    Format                           : DTS
    Format/Info                      : Digital Theater Systems
    Muxing mode                      : Header stripping
    Codec ID                         : A_DTS
    Duration                         : 1h 49mn
    Bit rate mode                    : Constant
    Bit rate                         : 1 510 Kbps
    Channel(s)                       : 6 channels
    Channel positions                : Front: L C R, Side: L R, LFE
    Sampling rate                    : 48.0 KHz
    Bit depth                        : 24 bits
    Compression mode                 : Lossy
    Stream size                      : 1.16 GiB (21%)
    Language                         : English



    You must click 'Thank You' before you can see the data contained here.
    You do not have sufficient rights to see the hidden data contained here.


    Code:
    * Download semua file dan join dengan HJSplit
    Last edited by Semplice; 18-09-2011 at 02:17 PM. Reason: reupload

  14. Who Said Thanks:

    There are too many to display.

Page 42 of 499 FirstFirst ... 323839404142434445465292142 ... LastLast

Bookmarks

Posting Permissions

  • You may not post new threads
  • You may not post replies
  • You may not post attachments
  • You may not edit your posts
  •  
Indowebster is proudly powered by PT. Gudang Data Indonesia