Page 43 of 499 FirstFirst ... 333940414243444546475393143 ... LastLast
Results 421 to 430 of 4981

Thread: [Archive] HD Collection | Link Lokal ONLY | Part II
http://idws.in/178115

  1. #421

    Join Date
    Jul 2011
    Location
    dimana saja
    Posts
    1,262
    Thank(s)
    10/60,509
    Rep Power
    4

    Default

    Quote Originally Posted by Semplice View Post
    Taken.2008.720p.BluRay.x264-REFiNED
    # Sudah direupload

    Quote Originally Posted by Semplice View Post
    District.9.2009.720p.BluRay.DTS.x264-METiS
    # Sudah direupload

    Quote Originally Posted by Semplice View Post
    Thor.2011.1080p.BluRay.x264-SECTOR7
    # Sudah direupload

    Quote Originally Posted by Semplice View Post
    The.5th.Quarter.2010.LIMITED.720p.BluRay.x264-PSYCHD
    # Sudah direupload
    Last edited by Semplice; 17-09-2011 at 10:44 PM.

  2. #422

    Join Date
    Jul 2011
    Location
    Anoa Island
    Posts
    52
    Thank(s)
    1/17
    Rep Power
    0

    Default

    Quote Originally Posted by Thinl View Post
    uda di reupload, ntar yang belum di reupload yang sabar ya
    Xiexie kk ...

  3. Who Said Thanks:


  4. #423

    Join Date
    Jul 2011
    Location
    dimana saja
    Posts
    1,262
    Thank(s)
    571/60,509
    Rep Power
    4

    Default

    Taken.2008.720p.BluRay.x264-REFiNED


    Show INFO

    Code:
    General
    Unique ID                        : 249420687995420636231046846129940105244 (0xBBA4AD5B6819A36283B32F2F52EA881C)
    Complete name                    : Taken.2008.720p.BluRay.x264-REFiNED.mkv
    Format                           : Matroska
    File size                        : 4.35 GiB
    Duration                         : 1h 33mn
    Overall bit rate                 : 6 642 Kbps
    Encoded date                     : UTC 2008-11-25 23:22:39
    Writing application              : mkvmerge v2.1.0 ('Another Place To Fall') built on Aug 19 2007 13:40:07
    Writing library                  : libebml v0.7.7 + libmatroska v0.8.1
    
    Video
    ID                               : 1
    Format                           : AVC
    Format/Info                      : Advanced Video Codec
    Format profile                   : High@L4.1
    Format settings, CABAC           : Yes
    Format settings, ReFrames        : 5 frames
    Codec ID                         : V_MPEG4/ISO/AVC
    Duration                         : 1h 33mn
    Bit rate                         : 5 129 Kbps
    Width                            : 1 280 pixels
    Height                           : 544 pixels
    Display aspect ratio             : 2.35:1
    Frame rate                       : 24.000 fps
    Color space                      : YUV
    Chroma subsampling               : 4:2:0
    Bit depth                        : 8 bits
    Scan type                        : Progressive
    Bits/(Pixel*Frame)               : 0.307
    Stream size                      : 3.27 GiB (75%)
    Writing library                  : x264 core 65 r1016M dbc5ef0
    Encoding settings                : cabac=1 / ref=5 / deblock=1:0:0 / analyse=0x3:0x133 / me=umh / subme=7 / psy_rd=1.0:0.0 / mixed_ref=1 / me_range=16 / chroma_me=1 / trellis=1 / 8x8dct=1 / cqm=0 / deadzone=21,11 / chroma_qp_offset=-2 / threads=6 / nr=0 / decimate=1 / mbaff=0 / bframes=3 / b_pyramid=1 / b_adapt=1 / b_bias=0 / direct=1 / wpredb=1 / keyint=250 / keyint_min=25 / scenecut=40(pre) / rc=2pass / bitrate=5129 / ratetol=1.0 / qcomp=0.60 / qpmin=10 / qpmax=51 / qpstep=4 / cplxblur=20.0 / qblur=0.5 / ip_ratio=1.40 / pb_ratio=1.30 / aq=1:1.00
    Language                         : English
    
    Audio
    ID                               : 2
    Format                           : DTS
    Format/Info                      : Digital Theater Systems
    Codec ID                         : A_DTS
    Duration                         : 1h 33mn
    Bit rate mode                    : Constant
    Bit rate                         : 1 510 Kbps
    Channel(s)                       : 6 channels
    Channel positions                : Front: L C R, Side: L R, LFE
    Sampling rate                    : 48.0 KHz
    Bit depth                        : 24 bits
    Compression mode                 : Lossy
    Stream size                      : 1 013 MiB (23%)



    You must click 'Thank You' before you can see the data contained here.
    You do not have sufficient rights to see the hidden data contained here.


    Code:
    * Download semua file dan join dengan HJSplit
    Last edited by Semplice; 18-09-2011 at 02:10 PM. Reason: reupload

  5. Who Said Thanks:

    There are too many to display.

  6. #424

    Join Date
    Jul 2011
    Location
    DKI Jakarta
    Posts
    37
    Thank(s)
    3/49
    Rep Power
    0

    Default

    Quote Originally Posted by Semplice View Post
    The.Final.Destination.2009.1080p.BluRay.x264.DTS-WiKi
    Quote Originally Posted by Semplice View Post
    Tom.And.Jerry.And.The.Wizard.Of.Oz.2011.1080p.BluR ay.x264-UNTOUCHABLES
    hasil reupload nya mantep, di download ngacir..

    thx bro semplice, sekarang mau nonton yang habis di download dulu ah

  7. Who Said Thanks:


  8. #425

    Join Date
    Jul 2011
    Location
    dimana saja
    Posts
    1,262
    Thank(s)
    199/60,509
    Rep Power
    4

    Default

    District.9.2009.720p.BluRay.DTS.x264-METiS


    Show INFO

    Code:
    General
    Unique ID                        : 190689078340441244203568116805700602553 (0x8F75616F49527868BF9CC3AF7082CAB9)
    Complete name                    : m-district9-720p.mkv
    Format                           : Matroska
    File size                        : 6.56 GiB
    Duration                         : 1h 52mn
    Overall bit rate                 : 8 365 Kbps
    Encoded date                     : UTC 2009-11-13 12:55:16
    Writing application              : mkvmerge v2.9.8 ('C'est le bon') built on Aug 13 2009 12:49:06
    Writing library                  : libebml v0.7.7 + libmatroska v0.8.1
    
    Video
    ID                               : 1
    Format                           : AVC
    Format/Info                      : Advanced Video Codec
    Format profile                   : High@L4.1
    Format settings, CABAC           : Yes
    Format settings, ReFrames        : 5 frames
    Codec ID                         : V_MPEG4/ISO/AVC
    Duration                         : 1h 52mn
    Bit rate                         : 6 854 Kbps
    Width                            : 1 280 pixels
    Height                           : 688 pixels
    Display aspect ratio             : 1.860
    Frame rate                       : 23.976 fps
    Color space                      : YUV
    Chroma subsampling               : 4:2:0
    Bit depth                        : 8 bits
    Scan type                        : Progressive
    Bits/(Pixel*Frame)               : 0.325
    Stream size                      : 5.24 GiB (80%)
    Writing library                  : x264 core 77 r1292M e381f6d
    Encoding settings                : cabac=1 / ref=5 / deblock=1:0:0 / analyse=0x3:0x133 / me=umh / subme=7 / psy=1 / psy_rd=1.0:0.0 / mixed_ref=1 / 
    
    me_range=16 / chroma_me=1 / trellis=1 / 8x8dct=1 / cqm=0 / deadzone=21,11 / chroma_qp_offset=-2 / threads=12 / nr=0 / decimate=1 / mbaff=0 / 
    
    constrained_intra=0 / bframes=3 / b_pyramid=1 / b_adapt=1 / b_bias=0 / direct=1 / wpredb=1 / keyint=250 / keyint_min=25 / scenecut=40 / rc=2pass / mbtree=0 / 
    
    bitrate=6854 / ratetol=1.0 / qcomp=0.60 / qpmin=10 / qpmax=51 / qpstep=4 / cplxblur=20.0 / qblur=0.5 / ip_ratio=1.40 / pb_ratio=1.30 / aq=1:1.00
    Language                         : English
    
    Audio
    ID                               : 2
    Format                           : DTS
    Format/Info                      : Digital Theater Systems
    Codec ID                         : A_DTS
    Duration                         : 1h 52mn
    Bit rate mode                    : Constant
    Bit rate                         : 1 510 Kbps
    Channel(s)                       : 6 channels
    Channel positions                : Front: L C R, Side: L R, LFE
    Sampling rate                    : 48.0 KHz
    Bit depth                        : 24 bits
    Compression mode                 : Lossy
    Stream size                      : 1.18 GiB (18%)
    Language                         : English
    
    Text
    ID                               : 3
    Format                           : UTF-8
    Codec ID                         : S_TEXT/UTF8
    Codec ID/Info                    : UTF-8 Plain Text
    Language                         : English



    You must click 'Thank You' before you can see the data contained here.
    You do not have sufficient rights to see the hidden data contained here.


    Code:
    * Download semua file dan join dengan HJSplit
    Last edited by Semplice; 18-09-2011 at 02:11 PM.

  9. Who Said Thanks:

    There are too many to display.

  10. #426

    Join Date
    Jul 2010
    Location
    Musi River
    Posts
    140
    Thank(s)
    1/1,417
    Rep Power
    0

    Default

    wah hebat yah.. juragan HD kita bro semplice sekarang udah jadi orang penting nih diselamat bro..bagi saya yang cuma member biasa cuma bisa berharap semoga makin buanyak koleksi HDnya dishare ama kita2 dan tetap komit ..teruskan perjuanganmu bro...
    Quote Originally Posted by Semplice View Post
    Set.Up.2011.720p.BluRay.x264.DTS-HDChina
    sebagai orang timur yang punya sopan santun saya ucapkan terimakasih Movienya sukses di sedot tinggal tonton nih malam

    sayang ya Maknyos masih sakit... padahal masih ada antrian di di IDM gw
    Last edited by wd76; 17-09-2011 at 11:19 PM.

  11. Who Said Thanks:


  12. #427

    Join Date
    Mar 2010
    Location
    surabaya
    Posts
    216
    Thank(s)
    0/615
    Rep Power
    0

    Default

    bro moho tanya nih,...

    saya uda dl residen evil 3D tp kok gk bisa di play ya??!

    apkh kudu pake player khusus??

    lapie ane core i5 vga ati 5650...apa yg salah y kk....plis advice....

  13. #428

    Join Date
    Apr 2009
    Location
    Earth
    Posts
    28,512
    Thank(s)
    0/152,297
    Blog Entries
    2
    Rep Power
    45

    Default

    Quote Originally Posted by holyday View Post
    bro moho tanya nih,...

    saya uda dl residen evil 3D tp kok gk bisa di play ya??!

    apkh kudu pake player khusus??

    lapie ane core i5 vga ati 5650...apa yg salah y kk....plis advice....
    gak bisa di play nya kenapa gitu?

  14. #429

    Join Date
    Jul 2011
    Location
    DKI Jakarta
    Posts
    37
    Thank(s)
    0/49
    Rep Power
    0

    Default

    faster 2011 sebagian part tidak bisa di download, ada gerangan dengan maknyos?

    btw, itu yang upload faster bro semplice atau darkdiabloz?

  15. #430

    Join Date
    Jun 2011
    Location
    malang
    Posts
    61
    Thank(s)
    2/106
    Rep Power
    0

    Default

    Thx's berat buat Bro..Smarty & Cailne
    Yang udah shared :
    Largo Winch 2 / The Burma Conspiracy [720p] [2011]
    I Saw the Devil [720p] [2010]

    X-Men First Class | 2011 by Cailne

    I Saw the Devil [720p] [2010] TOP Banget
    Link download & Play Movie Lancar Abis
    Last edited by H164M; 18-09-2011 at 03:31 AM.

  16. Who Said Thanks:


Page 43 of 499 FirstFirst ... 333940414243444546475393143 ... LastLast

Bookmarks

Posting Permissions

  • You may not post new threads
  • You may not post replies
  • You may not post attachments
  • You may not edit your posts
  •  
Indowebster is proudly powered by PT. Gudang Data Indonesia