Page 5 of 499 FirstFirst 1234567891555105 ... LastLast
Results 41 to 50 of 4981

Thread: [Archive] HD Collection | Link Lokal ONLY | Part II
http://idws.in/178115

  1. #41

    Join Date
    Mar 2010
    Location
    Bandung
    Posts
    789
    Thank(s)
    0/767
    Rep Power
    5

    Default

    Quote Originally Posted by arekBali View Post
    maksud nya recovery record tuh ntar abis di download kita recovery sendiri ?? trus gmn cara recovery nya ?? :s
    Kalo file hasil donlotnya nggak ada yang rusak atau error pada saat di ekstrak, nggak perlu direcovery. Recovery record berguna kalau ada file yang rusak/error.

  2. #42

    Join Date
    Apr 2009
    Location
    Earth
    Posts
    28,215
    Thank(s)
    1/149,472
    Blog Entries
    2
    Rep Power
    41

    Default

    Quote Originally Posted by koopredz View Post
    permisi mau tanya,
    ada yg aneh sama IDWS nih, kenapa saya donlod dari IDWS cuma dapet 25 KBps yah?
    sedangkan dari yang lain dapat 140 KBps (contoh Maknyos)
    jangan tanya disini ya, disini cuma untuk share film HD aja.

  3. Who Said Thanks:


  4. #43

    Join Date
    Feb 2010
    Location
    jogja
    Posts
    24,798
    Thank(s)
    0/555,177
    Blog Entries
    5
    Rep Power
    832

    Default

    Quote Originally Posted by sesat View Post
    Pak Anthrax,

    Thank you atas re-upload Men Of Honor part01 nya. Really appreciate it.
    Tetapi saya baru found out juga yang Part04 nya juga sekarang problem.

    Mohon di re-upload lagi yang part04 nya bisa?

    Thank you sebelumnya lagi...
    Quote Originally Posted by H164M View Post
    Bro Casino.Royale.UnCut.2006.BluRay.720p
    Part 7 (storage maintenance, back later) tlg diperbaiki/ reupload
    Thx's before
    reuploadnya besok abis lebaran aja deh

  5. #44

    Join Date
    Apr 2009
    Location
    Earth
    Posts
    28,215
    Thank(s)
    169/149,472
    Blog Entries
    2
    Rep Power
    41

    Default

    The Chronicles of Riddick (2004) 720p BluRay DTS x264-HiDt

    Show INFO
    Code:
    General
    Unique ID                        : 229178036658542546284241228388548830260 (0xAC6A159748A17488880FDA1FAB616434)
    Complete name                    : G:\Rampok\The Chronicles of Riddick (2004) 720p BluRay DTS x264-HiDt\The Chronicles of Riddick (2004) 720p BluRay DTS x264-HiDt.mkv
    Format                           : Matroska
    File size                        : 6.20 GiB
    Duration                         : 2h 14mn
    Overall bit rate                 : 6 618 Kbps
    Encoded date                     : UTC 2011-08-07 23:03:15
    Writing application              : mkvmerge v3.4.0 ('Rapunzel') built on May 15 2010 09:38:20
    Writing library                  : libebml v0.8.0 + libmatroska v0.9.0
    
    Video
    ID                               : 1
    Format                           : AVC
    Format/Info                      : Advanced Video Codec
    Format profile                   : High@L4.1
    Format settings, CABAC           : Yes
    Format settings, ReFrames        : 12 frames
    Codec ID                         : V_MPEG4/ISO/AVC
    Duration                         : 2h 14mn
    Bit rate                         : 5 046 Kbps
    Width                            : 1 280 pixels
    Height                           : 534 pixels
    Display aspect ratio             : 2.35:1
    Frame rate                       : 23.976 fps
    Color space                      : YUV
    Chroma subsampling               : 4:2:0
    Bit depth                        : 8 bits
    Scan type                        : Progressive
    Bits/(Pixel*Frame)               : 0.308
    Stream size                      : 4.60 GiB (74%)
    Title                            : x264
    Writing library                  : x264 core 116 r2044 392e762
    Encoding settings                : cabac=1 / ref=12 / deblock=1:-2:-2 / analyse=0x3:0x113 / me=tesa / subme=11 / psy=1 / psy_rd=1.00:0.00 / mixed_ref=1 / me_range=40 / chroma_me=1 / trellis=2 / 8x8dct=1 / cqm=0 / deadzone=21,11 / fast_pskip=0 / chroma_qp_offset=-2 / threads=12 / sliced_threads=0 / nr=0 / decimate=1 / interlaced=0 / bluray_compat=0 / constrained_intra=0 / bframes=6 / b_pyramid=2 / b_adapt=2 / b_bias=0 / direct=3 / weightb=1 / open_gop=0 / weightp=2 / keyint=250 / keyint_min=23 / scenecut=40 / intra_refresh=0 / rc_lookahead=120 / rc=2pass / mbtree=1 / bitrate=5046 / ratetol=1.0 / qcomp=0.60 / qpmin=0 / qpmax=69 / qpstep=4 / cplxblur=20.0 / qblur=0.5 / vbv_maxrate=48000 / vbv_bufsize=45000 / nal_hrd=none / ip_ratio=1.40 / aq=1:0.90 / zones=182020,192911,b=0.5
    Language                         : English
    
    Audio #1
    ID                               : 2
    Format                           : DTS
    Format/Info                      : Digital Theater Systems
    Codec ID                         : A_DTS
    Duration                         : 2h 14mn
    Bit rate mode                    : Constant
    Bit rate                         : 1 510 Kbps
    Channel(s)                       : 6 channels
    Channel positions                : Front: L C R, Side: L R, LFE
    Sampling rate                    : 48.0 KHz
    Bit depth                        : 24 bits
    Compression mode                 : Lossy
    Stream size                      : 1.41 GiB (23%)
    Title                            : DTS 5.1
    Language                         : English
    
    Audio #2
    ID                               : 3
    Format                           : Vorbis
    Format settings, Floor           : 1
    Codec ID                         : A_VORBIS
    Duration                         : 2h 14mn
    Bit rate mode                    : Constant
    Bit rate                         : 64.0 Kbps
    Channel(s)                       : 2 channels
    Sampling rate                    : 48.0 KHz
    Compression mode                 : Lossy
    Stream size                      : 61.4 MiB (1%)
    Title                            : Commentary
    Writing library                  : libVorbis (Schaufenugget) (20101101 (Schaufenugget))
    
    Text #1
    ID                               : 4
    Format                           : UTF-8
    Codec ID                         : S_TEXT/UTF8
    Codec ID/Info                    : UTF-8 Plain Text
    Language                         : English
    
    Text #2
    ID                               : 5
    Format                           : UTF-8
    Codec ID                         : S_TEXT/UTF8
    Codec ID/Info                    : UTF-8 Plain Text
    Language                         : Bulgarian
    
    Text #3
    ID                               : 6
    Format                           : UTF-8
    Codec ID                         : S_TEXT/UTF8
    Codec ID/Info                    : UTF-8 Plain Text
    Language                         : Chinese
    
    Text #4
    ID                               : 7
    Format                           : UTF-8
    Codec ID                         : S_TEXT/UTF8
    Codec ID/Info                    : UTF-8 Plain Text
    Language                         : Czech
    
    Text #5
    ID                               : 8
    Format                           : UTF-8
    Codec ID                         : S_TEXT/UTF8
    Codec ID/Info                    : UTF-8 Plain Text
    Language                         : Danish
    
    Text #6
    ID                               : 9
    Format                           : UTF-8
    Codec ID                         : S_TEXT/UTF8
    Codec ID/Info                    : UTF-8 Plain Text
    Language                         : Dutch
    
    Text #7
    ID                               : 10
    Format                           : UTF-8
    Codec ID                         : S_TEXT/UTF8
    Codec ID/Info                    : UTF-8 Plain Text
    Language                         : Finnish
    
    Text #8
    ID                               : 11
    Format                           : UTF-8
    Codec ID                         : S_TEXT/UTF8
    Codec ID/Info                    : UTF-8 Plain Text
    Language                         : French
    
    Text #9
    ID                               : 12
    Format                           : UTF-8
    Codec ID                         : S_TEXT/UTF8
    Codec ID/Info                    : UTF-8 Plain Text
    Language                         : German
    
    Text #10
    ID                               : 13
    Format                           : UTF-8
    Codec ID                         : S_TEXT/UTF8
    Codec ID/Info                    : UTF-8 Plain Text
    Language                         : Italian
    
    Text #11
    ID                               : 14
    Format                           : UTF-8
    Codec ID                         : S_TEXT/UTF8
    Codec ID/Info                    : UTF-8 Plain Text
    Language                         : Norwegian
    
    Text #12
    ID                               : 15
    Format                           : UTF-8
    Codec ID                         : S_TEXT/UTF8
    Codec ID/Info                    : UTF-8 Plain Text
    Title                            : BR
    Language                         : Portuguese
    
    Text #13
    ID                               : 16
    Format                           : UTF-8
    Codec ID                         : S_TEXT/UTF8
    Codec ID/Info                    : UTF-8 Plain Text
    Title                            : PT
    Language                         : Portuguese
    
    Text #14
    ID                               : 17
    Format                           : UTF-8
    Codec ID                         : S_TEXT/UTF8
    Codec ID/Info                    : UTF-8 Plain Text
    Language                         : Romanian
    
    Text #15
    ID                               : 18
    Format                           : UTF-8
    Codec ID                         : S_TEXT/UTF8
    Codec ID/Info                    : UTF-8 Plain Text
    Language                         : Spanish
    
    Text #16
    ID                               : 19
    Format                           : UTF-8
    Codec ID                         : S_TEXT/UTF8
    Codec ID/Info                    : UTF-8 Plain Text
    Language                         : Swedish
    
    Text #17
    ID                               : 20
    Format                           : UTF-8
    Codec ID                         : S_TEXT/UTF8
    Codec ID/Info                    : UTF-8 Plain Text
    Language                         : Turkish
    
    Text #18
    ID                               : 21
    Format                           : UTF-8
    Codec ID                         : S_TEXT/UTF8
    Codec ID/Info                    : UTF-8 Plain Text
    Language                         : Vietnamese
    
    Menu
    00:00:00.000                     : :1. The Necromongers
    00:02:39.325                     : :2. Hard Bounty
    00:07:05.508                     : :3. Back to Civilization
    00:11:25.643                     : :4. A Fighting Chance
    00:15:31.805                     : :5. A True Furyan
    00:20:58.757                     : :6. Attack of the Necromongers
    00:27:11.713                     : :7. Lensing & Cleansing
    00:31:27.302                     : :8. The Lord Marshal's Offer
    00:38:52.330                     : :9. Mind Regression
    00:43:32.568                     : :10. Caught
    00:47:18.418                     : :11. You Can Keep What You Kill
    00:53:38.340                     : :12. Welcome to Crematoria
    01:01:36.818                     : :13. Jack's Dead...
    01:04:29.824                     : :14. A Private War
    01:08:45.579                     : :15. Feeding Time
    01:11:43.173                     : :16. Two Killers
    01:17:19.051                     : :17. Good News & Bad News
    01:22:50.006                     : :18. Running the Surface
    01:29:05.131                     : :19. The Big Heat
    01:32:42.473                     : :20. The Better Killer
    01:41:13.650                     : :21. This Is Your Chance
    01:44:28.220                     : :22. What Are the Odds?
    01:48:15.197                     : :23. The Enemy Within
    01:53:18.583                     : :24. Convert or Fall
    01:57:02.682                     : :25. The Soul of a Furyan
    02:00:00.693                     : :26. Kill the Beast
    02:03:05.753                     : :27. At the Feet of an Outlaw
    02:04:08.065                     : :28. End Titles
    
    

    Show DOWNLOAD

    Code:
    SILAHKAN DIBACA DAHULU
    Download semua file. Join dengan HJSplit
    Untuk tanya masalah server IDWS silahkan ke SINI
    Cek Checksum pakai exactfile
    Bingung cara checksum? Bisa di cek disini
    
    Kalo ada masalah silahkan lapor via PM atau VM
    
    You must click 'Thank You' before you can see the data contained here.
    You do not have sufficient rights to see the hidden data contained here.


    Last edited by Thinl; 18-02-2012 at 06:45 PM.

  6. Who Said Thanks:

    There are too many to display.

  7. #45

    Join Date
    Apr 2009
    Location
    Earth
    Posts
    28,215
    Thank(s)
    83/149,472
    Blog Entries
    2
    Rep Power
    41

    Default

    Scream 1996 720p Bluray x264

    Show INFO
    Code:
    General
    Unique ID                        : 183417109276928447460200266522005997514 (0x89FCD9ADB72B49C295F4A030B9A207CA)
    Complete name                    : G:\Rampok\Scream 1996 720p BluRay x264\Scream 1996 720p Bluray x264.mkv
    Format                           : Matroska
    File size                        : 4.37 GiB
    Duration                         : 1h 49mn
    Overall bit rate                 : 5 718 Kbps
    Encoded date                     : UTC 2009-10-09 20:09:44
    Writing application              : mkvmerge v2.9.7 ('Tenderness') built on Jul  1 2009 18:43:35
    Writing library                  : libebml v0.7.7 + libmatroska v0.8.1
    
    Video
    ID                               : 1
    Format                           : AVC
    Format/Info                      : Advanced Video Codec
    Format profile                   : High@L4.1
    Format settings, CABAC           : Yes
    Format settings, ReFrames        : 5 frames
    Codec ID                         : V_MPEG4/ISO/AVC
    Duration                         : 1h 49mn
    Bit rate                         : 4 207 Kbps
    Width                            : 1 280 pixels
    Height                           : 544 pixels
    Display aspect ratio             : 2.35:1
    Frame rate                       : 23.976 fps
    Color space                      : YUV
    Chroma subsampling               : 4:2:0
    Bit depth                        : 8 bits
    Scan type                        : Progressive
    Bits/(Pixel*Frame)               : 0.252
    Stream size                      : 3.13 GiB (72%)
    Writing library                  : x264 core 76 r1271 496d79d
    Encoding settings                : cabac=1 / ref=5 / deblock=1:0:0 / analyse=0x3:0x2 / me=umh / subme=7 / psy=1 / psy_rd=1.0:0.0 / mixed_ref=1 / me_range=16 / chroma_me=1 / trellis=1 / 8x8dct=1 / cqm=0 / deadzone=21,11 / chroma_qp_offset=-2 / threads=3 / nr=0 / decimate=1 / mbaff=0 / bframes=3 / b_pyramid=0 / b_adapt=1 / b_bias=0 / direct=3 / wpredb=1 / keyint=250 / keyint_min=25 / scenecut=40 / rc_lookahead=40 / rc=2pass / mbtree=1 / bitrate=4207 / ratetol=1.0 / qcomp=0.60 / qpmin=10 / qpmax=51 / qpstep=4 / cplxblur=20.0 / qblur=0.5 / ip_ratio=1.40 / aq=1:1.00
    
    Audio
    ID                               : 2
    Format                           : DTS
    Format/Info                      : Digital Theater Systems
    Codec ID                         : A_DTS
    Duration                         : 1h 49mn
    Bit rate mode                    : Constant
    Bit rate                         : 1 510 Kbps
    Channel(s)                       : 6 channels
    Channel positions                : Front: L C R, Side: L R, LFE
    Sampling rate                    : 48.0 KHz
    Bit depth                        : 16 bits
    Compression mode                 : Lossy
    Stream size                      : 1.15 GiB (26%)
    Language                         : English
    
    

    Show DOWNLOAD

    Code:
    SILAHKAN DIBACA DAHULU
    Download semua file. Join dengan HJSplit
    Untuk tanya masalah server IDWS silahkan ke SINI
    Cek Checksum pakai exactfile
    Bingung cara checksum? Bisa di cek disini
    
    Kalo ada masalah silahkan lapor via PM atau VM
    
    You must click 'Thank You' before you can see the data contained here.
    You do not have sufficient rights to see the hidden data contained here.


    Last edited by Thinl; 18-02-2012 at 06:46 PM.

  8. Who Said Thanks:

    There are too many to display.

  9. #46

    Join Date
    Apr 2009
    Location
    Earth
    Posts
    28,215
    Thank(s)
    69/149,472
    Blog Entries
    2
    Rep Power
    41

    Default

    Scream 2 1997 720p BluRay x264

    Show INFO
    Code:
    General
    Complete name                    : G:\Rampok\Scream 2 1997 720p BluRay x264\Scream 2 1997 720p BluRay x264.mkv
    Format                           : Matroska
    File size                        : 6.56 GiB
    Duration                         : 2h 0mn
    Overall bit rate                 : 7 816 Kbps
    Writing application              : x264.exe
    Writing library                  : mkv2rls v1.0
    
    Video
    ID                               : 1
    Format                           : AVC
    Format/Info                      : Advanced Video Codec
    Format profile                   : High@L4.1
    Format settings, CABAC           : Yes
    Format settings, ReFrames        : 5 frames
    Codec ID                         : V_MPEG4/ISO/AVC
    Duration                         : 2h 0mn
    Bit rate                         : 6 303 Kbps
    Width                            : 1 280 pixels
    Height                           : 720 pixels
    Display aspect ratio             : 16:9
    Frame rate                       : 23.976 fps
    Color space                      : YUV
    Chroma subsampling               : 4:2:0
    Bit depth                        : 8 bits
    Scan type                        : Progressive
    Bits/(Pixel*Frame)               : 0.285
    Stream size                      : 5.16 GiB (79%)
    Writing library                  : x264 core 77 r1280 5cda2cf
    Encoding settings                : cabac=1 / ref=5 / deblock=1:0:0 / analyse=0x3:0x113 / me=umh / subme=7 / psy=1 / psy_rd=1.0:0.0 / mixed_ref=1 / me_range=16 / chroma_me=1 / trellis=1 / 8x8dct=1 / cqm=0 / deadzone=21,11 / chroma_qp_offset=-2 / threads=6 / nr=0 / decimate=1 / mbaff=0 / constrained_intra=0 / bframes=3 / b_pyramid=0 / b_adapt=1 / b_bias=0 / direct=1 / wpredb=1 / keyint=250 / keyint_min=25 / scenecut=40 / rc_lookahead=40 / rc=2pass / mbtree=1 / bitrate=6303 / ratetol=1.0 / qcomp=0.60 / qpmin=10 / qpmax=51 / qpstep=4 / cplxblur=20.0 / qblur=0.5 / ip_ratio=1.40 / aq=1:1.00
    Language                         : English
    
    Audio
    ID                               : 2
    Format                           : DTS
    Format/Info                      : Digital Theater Systems
    Codec ID                         : A_DTS
    Duration                         : 2h 0mn
    Bit rate mode                    : Constant
    Bit rate                         : 1 510 Kbps
    Channel(s)                       : 6 channels
    Channel positions                : Front: L C R, Side: L R, LFE
    Sampling rate                    : 48.0 KHz
    Bit depth                        : 24 bits
    Compression mode                 : Lossy
    Stream size                      : 1.27 GiB (19%)
    Title                            : English DTS 1509kbps
    Language                         : English
    
    Menu
    00:00:00.000                     : en:00:00:00.000
    00:07:05.342                     : en:00:07:05.342
    00:11:46.497                     : en:00:11:46.497
    00:15:03.277                     : en:00:15:03.277
    00:18:22.268                     : en:00:18:22.268
    00:22:02.238                     : en:00:22:02.238
    00:24:33.931                     : en:00:24:33.931
    00:25:56.430                     : en:00:25:56.430
    00:28:51.063                     : en:00:28:51.063
    00:35:18.575                     : en:00:35:18.575
    00:38:23.384                     : en:00:38:23.384
    00:42:54.572                     : en:00:42:54.572
    00:46:29.245                     : en:00:46:29.245
    00:49:50.487                     : en:00:49:50.487
    00:54:51.788                     : en:00:54:51.788
    01:00:47.561                     : en:01:00:47.561
    01:06:13.511                     : en:01:06:13.511
    01:09:35.463                     : en:01:09:35.463
    01:12:54.745                     : en:01:12:54.745
    01:23:04.688                     : en:01:23:04.688
    01:32:00.849                     : en:01:32:00.849
    01:37:32.513                     : en:01:37:32.513
    01:41:29.458                     : en:01:41:29.458
    01:43:41.507                     : en:01:43:41.507
    01:45:25.110                     : en:01:45:25.110
    01:50:48.350                     : en:01:50:48.350
    01:53:03.777                     : en:01:53:03.777
    
    

    Show DOWNLOAD

    Code:
    SILAHKAN DIBACA DAHULU
    Download semua file. Join dengan HJSplit
    Untuk tanya masalah server IDWS silahkan ke SINI
    Cek Checksum pakai exactfile
    Bingung cara checksum? Bisa di cek disini
    
    Kalo ada masalah silahkan lapor via PM atau VM
    
    You must click 'Thank You' before you can see the data contained here.
    You do not have sufficient rights to see the hidden data contained here.


    Last edited by Thinl; 18-02-2012 at 06:47 PM.

  10. Who Said Thanks:

    There are too many to display.

  11. #47

    Join Date
    Apr 2009
    Location
    Earth
    Posts
    28,215
    Thank(s)
    63/149,472
    Blog Entries
    2
    Rep Power
    41

    Default

    Scream 3 BluRay x264 720p

    Show INFO
    Code:
    General
    Complete name                    : G:\Rampok\Scream 3 (2000) 720p BluRay x264-BestHD\Scream 3 BluRay x264 720p.mkv
    Format                           : Matroska
    File size                        : 6.56 GiB
    Duration                         : 1h 56mn
    Overall bit rate                 : 8 060 Kbps
    Writing application              : x264.exe
    Writing library                  : mkv2rls v1.0
    
    Video
    ID                               : 1
    Format                           : AVC
    Format/Info                      : Advanced Video Codec
    Format profile                   : High@L4.1
    Format settings, CABAC           : Yes
    Format settings, ReFrames        : 5 frames
    Codec ID                         : V_MPEG4/ISO/AVC
    Duration                         : 1h 56mn
    Bit rate                         : 6 547 Kbps
    Width                            : 1 280 pixels
    Height                           : 544 pixels
    Display aspect ratio             : 2.35:1
    Frame rate                       : 23.976 fps
    Color space                      : YUV
    Chroma subsampling               : 4:2:0
    Bit depth                        : 8 bits
    Scan type                        : Progressive
    Bits/(Pixel*Frame)               : 0.392
    Stream size                      : 5.20 GiB (79%)
    Writing library                  : x264 core 77 r1280 5cda2cf
    Encoding settings                : cabac=1 / ref=5 / deblock=1:0:0 / analyse=0x3:0x113 / me=umh / subme=7 / psy=1 / psy_rd=1.0:0.0 / mixed_ref=1 / me_range=16 / chroma_me=1 / trellis=1 / 8x8dct=1 / cqm=0 / deadzone=21,11 / chroma_qp_offset=-2 / threads=6 / nr=0 / decimate=1 / mbaff=0 / constrained_intra=0 / bframes=3 / b_pyramid=0 / b_adapt=1 / b_bias=0 / direct=1 / wpredb=1 / keyint=250 / keyint_min=25 / scenecut=40 / rc_lookahead=40 / rc=2pass / mbtree=1 / bitrate=6547 / ratetol=1.0 / qcomp=0.60 / qpmin=10 / qpmax=51 / qpstep=4 / cplxblur=20.0 / qblur=0.5 / ip_ratio=1.40 / aq=1:1.00
    Language                         : English
    
    Audio
    ID                               : 2
    Format                           : DTS
    Format/Info                      : Digital Theater Systems
    Codec ID                         : A_DTS
    Duration                         : 1h 56mn
    Bit rate mode                    : Constant
    Bit rate                         : 1 510 Kbps
    Channel(s)                       : 6 channels
    Channel positions                : Front: L C R, Side: L R, LFE
    Sampling rate                    : 48.0 KHz
    Bit depth                        : 24 bits
    Compression mode                 : Lossy
    Stream size                      : 1.23 GiB (19%)
    Title                            : English DTS 1509kbps
    Language                         : English
    
    Menu
    00:00:00.000                     : en:00:00:00.000
    00:09:28.568                     : en:00:09:28.568
    00:13:19.757                     : en:00:13:19.757
    00:19:31.837                     : en:00:19:31.837
    00:22:33.811                     : en:00:22:33.811
    00:28:23.410                     : en:00:28:23.410
    00:33:06.568                     : en:00:33:06.568
    00:37:26.703                     : en:00:37:26.703
    00:41:46.254                     : en:00:41:46.254
    00:48:18.854                     : en:00:48:18.854
    00:52:12.629                     : en:00:52:12.629
    00:56:16.540                     : en:00:56:16.540
    00:59:45.707                     : en:00:59:45.707
    01:09:01.471                     : en:01:09:01.471
    01:11:57.730                     : en:01:11:57.730
    01:15:03.040                     : en:01:15:03.040
    01:27:15.147                     : en:01:27:15.147
    01:30:49.903                     : en:01:30:49.903
    01:35:01.070                     : en:01:35:01.070
    01:47:20.267                     : en:01:47:20.267
    
    

    Show DOWNLOAD

    Code:
    SILAHKAN DIBACA DAHULU
    Download semua file. Join dengan HJSplit
    Untuk tanya masalah server IDWS silahkan ke SINI
    Cek Checksum pakai exactfile
    Bingung cara checksum? Bisa di cek disini
    
    Kalo ada masalah silahkan lapor via PM atau VM
    
    You must click 'Thank You' before you can see the data contained here.
    You do not have sufficient rights to see the hidden data contained here.


    Last edited by Thinl; 18-02-2012 at 06:48 PM.

  12. Who Said Thanks:

    There are too many to display.

  13. #48

    Join Date
    Dec 2009
    Location
    In Your Dream
    Posts
    162
    Thank(s)
    0/2,241
    Rep Power
    0

    Default

    @DarkdiabloZ
    gan drive angry 1080p versi 3d ato bukan ya?
    daripada udah donlut tapi keliru
    karena udah punya yg versi 3d nya
    thanks

  14. #49

    Join Date
    Jul 2011
    Location
    dimana saja
    Posts
    1,260
    Thank(s)
    252/59,451
    Rep Power
    3

    Default

    Love.Wedding.Marriage.2011.LIMITED.720p.Bluray.x26 4-MHD


    Code:
    Name.................: Love, Wedding, Marriage (2011)  
    Genre................: Comedy
    Rating...............: 4.8/10 (336 votes)
    iMDB.................: http://www.imdb.com/title/tt1436559
    
    File Size............: 4.47 GB
    Runtime..............: 1h 26mn
    Audio Bitrate........: English DTS 1510 Kbps
    Video Bitrate........: 5722kbps
    Resolution...........: 1280x528
    Sub..................: English (srt separate)

    You must click 'Thank You' before you can see the data contained here.
    You do not have sufficient rights to see the hidden data contained here.


    Code:
    * Download semua file dan join dengan HJSplit
    Last edited by Semplice; 18-09-2011 at 02:27 PM. Reason: reupload

  15. Who Said Thanks:

    There are too many to display.

  16. #50

    Join Date
    Jul 2011
    Location
    dimana saja
    Posts
    1,260
    Thank(s)
    156/59,451
    Rep Power
    3

    Default

    The.Final.Destination.2009.1080p.BluRay.x264.DTS-WiKi


    Show INFO

    Code:
    General
    Unique ID                        : 185356704567279988360791162872213643177 (0x8B72671C0F453E48AA9A8943AAE59FA9)
    Complete name                    : The.Final.Destination.2009.1080p.BluRay.x264.DTS-WiKi\The.Final.Destination.2009.1080p.BluRay.x264.DTS-WiKi.mkv
    Format                           : Matroska
    File size                        : 7.96 GiB
    Duration                         : 1h 21mn
    Overall bit rate                 : 13.9 Mbps
    Encoded date                     : UTC 2009-11-28 11:25:23
    Writing application              : mkvmerge v2.9.7 ('Tenderness') built on Jul  1 2009 18:43:35
    Writing library                  : libebml v0.7.7 + libmatroska v0.8.1
    
    Video
    ID                               : 1
    Format                           : AVC
    Format/Info                      : Advanced Video Codec
    Format profile                   : High@L4.1
    Format settings, CABAC           : Yes
    Format settings, ReFrames        : 5 frames
    Format settings, GOP             : N=1
    Codec ID                         : V_MPEG4/ISO/AVC
    Duration                         : 1h 21mn
    Bit rate                         : 12.4 Mbps
    Width                            : 1 920 pixels
    Height                           : 798 pixels
    Display aspect ratio             : 2.40:1
    Frame rate                       : 23.976 fps
    Color space                      : YUV
    Chroma subsampling               : 4:2:0
    Bit depth                        : 8 bits
    Scan type                        : Progressive
    Bits/(Pixel*Frame)               : 0.338
    Stream size                      : 6.94 GiB (87%)
    Writing library                  : x264 core 68 r1179M 96e2229
    Encoding settings                : cabac=1 / ref=5 / deblock=1:-3:-3 / analyse=0x3:0x133 / me=esa / subme=9 / psy_rd=1.1:0.0 / mixed_ref=1 / me_range=48 / 
    
    chroma_me=1 / trellis=2 / 8x8dct=1 / cqm=0 / deadzone=21,11 / chroma_qp_offset=-2 / threads=12 / nr=0 / decimate=1 / mbaff=0 / bframes=5 / b_pyramid=1 / 
    
    b_adapt=2 / b_bias=0 / direct=1 / wpredb=1 / keyint=250 / keyint_min=25 / scenecut=40 / rc=2pass / bitrate=12418 / ratetol=1.0 / qcomp=0.60 / qpmin=10 / 
    
    qpmax=51 / qpstep=4 / cplxblur=20.0 / qblur=0.5 / vbv_maxrate=50000 / vbv_bufsize=50000 / ip_ratio=1.40 / pb_ratio=1.30 / aq=1:0.90
    Language                         : English
    
    Audio
    ID                               : 2
    Format                           : DTS
    Format/Info                      : Digital Theater Systems
    Codec ID                         : A_DTS
    Duration                         : 1h 21mn
    Bit rate mode                    : Constant
    Bit rate                         : 1 510 Kbps
    Channel(s)                       : 6 channels
    Channel positions                : Front: L C R, Side: L R, LFE
    Sampling rate                    : 48.0 KHz
    Bit depth                        : 16 bits
    Compression mode                 : Lossy
    Stream size                      : 884 MiB (11%)
    Title                            : English DTS 5.1 CH @ 1.5M
    Language                         : English



    You must click 'Thank You' before you can see the data contained here.
    You do not have sufficient rights to see the hidden data contained here.


    Code:
    * Download semua file dan join dengan HJSplit
    Last edited by Semplice; 17-09-2011 at 12:11 PM. Reason: reupload

  17. Who Said Thanks:

    There are too many to display.

Page 5 of 499 FirstFirst 1234567891555105 ... LastLast

Bookmarks

Posting Permissions

  • You may not post new threads
  • You may not post replies
  • You may not post attachments
  • You may not edit your posts
  •  
Indowebster is proudly powered by PT. Gudang Data Indonesia