Page 9 of 497 FirstFirst ... 56789101112131959109 ... LastLast
Results 81 to 90 of 4970

Thread: [Archive] HD Collection | Link Lokal ONLY | Part II
http://idws.in/178115

  1. #81

    Join Date
    Nov 2009
    Location
    ENJUKU
    Posts
    1,131
    Thank(s)
    0/33,300
    Blog Entries
    6
    Rep Power
    8

    Default

    Quote Originally Posted by jezqhiel View Post
    @ Thinl: ini tidak di index ?
    sabar bro .. orang ga selamanya OL kn

  2. #82

    Join Date
    Apr 2009
    Location
    Earth
    Posts
    28,684
    Thank(s)
    2/155,083
    Blog Entries
    2
    Rep Power
    48

    Default

    Quote Originally Posted by jezqhiel View Post
    @ Thinl: ini tidak di index ?
    lagi gak mood nge index, lagi sibuk

  3. Who Said Thanks:


  4. #83

    Join Date
    Jul 2011
    Location
    dimana saja
    Posts
    1,262
    Thank(s)
    290/61,397
    Rep Power
    4

    Default

    The.A.Team.1080p.BluRay.2010


    Show INFO

    Code:
    General
    Unique ID                        : 252577210574677636036556676269020902898 (0xBE0499EF8DE0E7FAB1EC87641A7175F2)
    Complete name                    : The.A.Team.1080p.2010.mkv
    Format                           : Matroska
    File size                        : 10.7 GiB
    Duration                         : 2h 13mn
    Overall bit rate                 : 11.5 Mbps
    Encoded date                     : UTC 2010-10-11 16:04:14
    Writing application              : mkvmerge v2.9.8 ('C'est le bon') built on Aug 13 2009 12:49:06
    Writing library                  : libebml v0.7.7 + libmatroska v0.8.1
    
    Video
    ID                               : 1
    Format                           : AVC
    Format/Info                      : Advanced Video Codec
    Format profile                   : High@L4.1
    Format settings, CABAC           : Yes
    Format settings, ReFrames        : 5 frames
    Codec ID                         : V_MPEG4/ISO/AVC
    Duration                         : 2h 13mn
    Bit rate                         : 9 999 Kbps
    Width                            : 1 920 pixels
    Height                           : 816 pixels
    Display aspect ratio             : 2.35:1
    Frame rate                       : 23.976 fps
    Color space                      : YUV
    Chroma subsampling               : 4:2:0
    Bit depth                        : 8 bits
    Scan type                        : Progressive
    Bits/(Pixel*Frame)               : 0.266
    Stream size                      : 9.11 GiB (85%)
    Writing library                  : x264 core 98 r1649 20cbe10
    Encoding settings                : cabac=1 / ref=5 / deblock=1:-1:-1 / analyse=0x3:0x133 / me=umh / subme=6 / psy=1 / psy_rd=1.00:0.00 / mixed_ref=1 / 
    
    me_range=16 / chroma_me=1 / trellis=1 / 8x8dct=1 / cqm=0 / deadzone=21,11 / fast_pskip=1 / chroma_qp_offset=-2 / threads=16 / sliced_threads=0 / nr=0 / 
    
    decimate=1 / interlaced=0 / constrained_intra=0 / bframes=3 / b_pyramid=2 / b_adapt=2 / b_bias=0 / direct=3 / weightb=1 / weightp=2 / keyint=250 / 
    
    keyint_min=25 / scenecut=40 / intra_refresh=0 / rc_lookahead=40 / rc=2pass / mbtree=1 / bitrate=9999 / ratetol=1.0 / qcomp=0.60 / qpmin=10 / qpmax=51 / 
    
    qpstep=4 / cplxblur=20.0 / qblur=0.5 / ip_ratio=1.40 / aq=1:1.00
    Language                         : English
    
    Audio
    ID                               : 2
    Format                           : DTS
    Format/Info                      : Digital Theater Systems
    Codec ID                         : A_DTS
    Duration                         : 2h 13mn
    Bit rate mode                    : Constant
    Bit rate                         : 1 510 Kbps
    Channel(s)                       : 6 channels
    Channel positions                : Front: L C R, Side: L R, LFE
    Sampling rate                    : 48.0 KHz
    Bit depth                        : 24 bits
    Compression mode                 : Lossy
    Stream size                      : 1.41 GiB (13%)
    Title                            : English DTS
    Language                         : English
    
    Text #1
    ID                               : 3
    Format                           : UTF-8
    Codec ID                         : S_TEXT/UTF8
    Codec ID/Info                    : UTF-8 Plain Text
    Title                            : English - SDH
    Language                         : English
    
    Text #2
    ID                               : 4
    Format                           : UTF-8
    Codec ID                         : S_TEXT/UTF8
    Codec ID/Info                    : UTF-8 Plain Text
    Title                            : English - Forced
    Language                         : English



    You must click 'Thank You' before you can see the data contained here.
    You do not have sufficient rights to see the hidden data contained here.


    Code:
    * Download semua file dan join dengan HJSplit
    Last edited by Semplice; 21-09-2011 at 09:41 AM. Reason: reupload

  5. Who Said Thanks:

    There are too many to display.

  6. #84

    Join Date
    Jul 2011
    Location
    dimana saja
    Posts
    1,262
    Thank(s)
    56/61,397
    Rep Power
    4

    Default

    The.Perfect.Host.2010.720p.BluRay.x264-aAF


    Show INFO

    Code:
    General
    Unique ID                        : 183388353501552211872667344618561254737 (0x89F74FE8CDB922E4B439079D2E9CB551)
    Complete name                    : aaf-the.perfect.host.2010.720p.bluray.x264.mkv
    Format                           : Matroska
    File size                        : 4.37 GiB
    Duration                         : 1h 32mn
    Overall bit rate                 : 6 749 Kbps
    Encoded date                     : UTC 2011-08-16 13:09:58
    Writing application              : mkvmerge v4.9.1 ('Ich will') built on Jul 11 2011 23:53:15
    Writing library                  : libebml v1.2.1 + libmatroska v1.1.1
    
    Video
    ID                               : 1
    Format                           : AVC
    Format/Info                      : Advanced Video Codec
    Format profile                   : High@L4.1
    Format settings, CABAC           : Yes
    Format settings, ReFrames        : 5 frames
    Format settings, GOP             : M=4, N=24
    Codec ID                         : V_MPEG4/ISO/AVC
    Duration                         : 1h 32mn
    Bit rate                         : 5 239 Kbps
    Width                            : 1 280 pixels
    Height                           : 720 pixels
    Display aspect ratio             : 16:9
    Frame rate                       : 23.976 fps
    Color space                      : YUV
    Chroma subsampling               : 4:2:0
    Bit depth                        : 8 bits
    Scan type                        : Progressive
    Bits/(Pixel*Frame)               : 0.237
    Stream size                      : 3.31 GiB (76%)
    Writing library                  : x264 core 116 r2057 0ba8a9c
    Encoding settings                : cabac=1 / ref=5 / deblock=1:0:0 / analyse=0x3:0x133 / me=umh / subme=8 / psy=1 / psy_rd=1.00:0.00 / mixed_ref=1 / 
    
    me_range=16 / chroma_me=1 / trellis=1 / 8x8dct=1 / cqm=0 / deadzone=21,11 / fast_pskip=0 / chroma_qp_offset=-2 / threads=12 / sliced_threads=0 / nr=0 / 
    
    decimate=1 / interlaced=0 / bluray_compat=0 / constrained_intra=0 / bframes=3 / b_pyramid=2 / b_adapt=1 / b_bias=0 / direct=1 / weightb=1 / open_gop=0 / 
    
    weightp=2 / keyint=250 / keyint_min=25 / scenecut=40 / intra_refresh=0 / rc_lookahead=40 / rc=2pass / mbtree=1 / bitrate=5239 / ratetol=1.0 / qcomp=0.60 / 
    
    qpmin=0 / qpmax=69 / qpstep=4 / cplxblur=20.0 / qblur=0.5 / ip_ratio=1.40 / aq=1:1.00
    Language                         : English
    
    Audio
    ID                               : 2
    Format                           : DTS
    Format/Info                      : Digital Theater Systems
    Codec ID                         : A_DTS
    Duration                         : 1h 32mn
    Bit rate mode                    : Constant
    Bit rate                         : 1 510 Kbps
    Channel(s)                       : 6 channels
    Channel positions                : Front: L C R, Side: L R, LFE
    Sampling rate                    : 48.0 KHz
    Bit depth                        : 24 bits
    Compression mode                 : Lossy
    Stream size                      : 1 001 MiB (22%)



    You must click 'Thank You' before you can see the data contained here.
    You do not have sufficient rights to see the hidden data contained here.


    Code:
    * Download semua file dan join dengan HJSplit
    Last edited by Semplice; 22-09-2011 at 04:25 PM. Reason: reupload

  7. Who Said Thanks:

    There are too many to display.

  8. #85

    Join Date
    Feb 2010
    Location
    surabaya
    Posts
    190
    Thank(s)
    1/3,802
    Rep Power
    0

    Default

    Quote Originally Posted by Thinl View Post
    Pirates of the Caribbean: On Stranger Tides [2011] [1080p]
    kq kgak bisa di join ya??tulisannya segment 005 gk sesuai....udh donlod 2x yg 005 nya nih... @_@

  9. Who Said Thanks:


  10. #86

    Join Date
    Apr 2009
    Location
    Earth
    Posts
    28,684
    Thank(s)
    2/155,083
    Blog Entries
    2
    Rep Power
    48

    Default

    Quote Originally Posted by wenhau View Post
    kq kgak bisa di join ya??tulisannya segment 005 gk sesuai....udh donlod 2x yg 005 nya nih... @_@
    coba SS semua file nya dan errornya, ama hasil checksumnya

  11. Who Said Thanks:


  12. #87

    Join Date
    Feb 2010
    Location
    surabaya
    Posts
    190
    Thank(s)
    0/3,802
    Rep Power
    0

    Default

    Quote Originally Posted by Thinl View Post
    coba SS semua file nya dan errornya, ama hasil checksumnya
    hasil checksumnya tuh gmn ya??? :D

  13. #88

    Join Date
    Apr 2009
    Location
    Earth
    Posts
    28,684
    Thank(s)
    1/155,083
    Blog Entries
    2
    Rep Power
    48

    Default

    Quote Originally Posted by wenhau View Post
    hasil checksumnya tuh gmn ya??? :D
    cek postingan saya, uda dijelasin

  14. Who Said Thanks:


  15. #89

    Join Date
    Feb 2010
    Location
    surabaya
    Posts
    190
    Thank(s)
    0/3,802
    Rep Power
    0

    Default

    Quote Originally Posted by Thinl View Post
    cek postingan saya, uda dijelasin
    aq pake mac bro....td udh cek di postingan, prog nya bwt windows...

  16. #90

    Join Date
    Apr 2009
    Location
    Earth
    Posts
    28,684
    Thank(s)
    1/155,083
    Blog Entries
    2
    Rep Power
    48

    Default

    Quote Originally Posted by wenhau View Post
    aq pake mac bro....td udh cek di postingan, prog nya bwt windows...
    hmm, kalo pake ini bisa?

    http://www.colonywest.us/index.php?o...d=46&Itemid=56

  17. Who Said Thanks:


Page 9 of 497 FirstFirst ... 56789101112131959109 ... LastLast

Bookmarks

Posting Permissions

  • You may not post new threads
  • You may not post replies
  • You may not post attachments
  • You may not edit your posts
  •  
Indowebster is proudly powered by PT. Gudang Data Indonesia