Page 335 of 583 FirstFirst ... 235285325331332333334335336337338339345385435 ... LastLast
Results 3,341 to 3,350 of 5830

Thread: [Archive] HD Collection | Lokal ONLY | I
http://idws.in/18136

  1. #3341

    Join Date
    Apr 2009
    Location
    Tangerang
    Posts
    22
    Thank(s)
    1/4
    Rep Power
    0

    Default

    Quote Originally Posted by Thinl View Post
    kalo gak coba kasih SS nya deh errornya gimana
    udah saya hapus semua partnya bro
    udah download yang dvdrip hahaha
    gak mungkin salah rename kq, soalnya notification errornya muncul pas part 29 doang winrarnya bilang part 29 corrupt, kalo salah rename di awal2 pasti persentase merging filenya gak sinkron trus juga errornya bisa muncul di awal2, ini errornya muncul pas mau extract part 29 doang.

  2. Who Said Thanks:


  3. #3342

    Join Date
    Apr 2009
    Location
    Earth
    Posts
    28,207
    Thank(s)
    182/149,166
    Blog Entries
    2
    Rep Power
    41

    Default

    Accident (2009) 1080p-aBD

    Show INFO
    Code:
    General Format : Matroska File size : 6.56 GiB Duration : 1h 26mn Overall bit rate : 10.8 Mbps Encoded date : UTC 2009-11-17 02:15:49 Writing application : mkvmerge v2.0.2 ('You're My Flame') built on Feb 21 2007 23:40:55 Writing library : libebml v0.7.7 + libmatroska v0.8.1 Video ID : 1 Format : AVC Format/Info : Advanced Video Codec Format profile : High@L4.1 Format settings, CABAC : Yes Format settings, ReFrames : 5 frames Codec ID : V_MPEG4/ISO/AVC Duration : 1h 26mn Bit rate : 10.2 Mbps Width : 1 920 pixels Height : 816 pixels Display aspect ratio : 2.35:1 Frame rate : 24.000 fps Color space : YUV Chroma subsampling : 4:2:0 Bit depth : 8 bits Scan type : Progressive Bits/(Pixel*Frame) : 0.270 Stream size : 6.04 GiB (92%) Writing library : x264 core 79 r1332 70f8869 Language : Chinese Audio ID : 2 Format : AC-3 Format/Info : Audio Coding 3 Mode extension : CM (complete main) Codec ID : A_AC3 Duration : 1h 26mn Bit rate mode : Constant Bit rate : 640 Kbps Channel(s) : 6 channels Channel positions : Front: L C R, Side: L R, LFE Sampling rate : 48.0 KHz Bit depth : 16 bits Compression mode : Lossy Stream size : 398 MiB (6%) Language : Chinese Text ID : 3 Format : UTF-8 Codec ID : S_TEXT/UTF8 Codec ID/Info : UTF-8 Plain Text Language : English


    Show DOWNLOAD
    You must click 'Thank You' before you can see the data contained here.
    You do not have sufficient rights to see the hidden data contained here.

    Show CHECKSUM
    Code:
    
    B48D3982ED7ABEC9DB9ABA309C823131 *Accident.part01.rar
    80AA0C4C3698D525C6686E5E82F15178 *Accident.part02.rar
    61662E769BF6DEDF164897946EC1339F *Accident.part03.rar
    4771E3006DB0BE3D94E46B0BBC7CDBCB *Accident.part04.rar
    D9F3473E89CBBA3F443B5A1A3FCB39C6 *Accident.part05.rar
    C1F5E74F3B64C1EA4E887BF2D10A8835 *Accident.part06.rar
    CC02C69F63C7C2AFBF4002463D9FE86E *Accident.part07.rar
    11DB08CC383EFCDE1F089496D5AC82ED *Accident.part08.rar
    A5D5CEACF60828AF03661CAB784FEB39 *Accident.part09.rar
    41BE2AEE57C1C812F1AB96A301A1A46B *Accident.part10.rar
    44A5121381B21D28D97122C2019146C4 *Accident.part11.rar
    D33FC501DE26F424E15CCFD7D343D57B *Accident.part12.rar
    DBBCE16C288CCAF90786D3657DA3546C *Accident.part13.rar
    0F1DB4748584BCE337C0EB0ABE125478 *Accident.part14.rar
    3CBF08C2EAC0BF0839FC9449CABC0293 *Accident.part15.rar
    0D1280D6445252EAAA12E3B0ABA4DE5A *Accident.part16.rar
    569C3CCB02F7D7669FAEF50A25AFD374 *Accident.part17.rar
    DE79E15DBBAED4A8EEF08E048892CDF6 *Accident.part18.rar
    12CA23E20D397957038F346415A24064 *Accident.part19.rar
    8293AA5BD7384243124CD469A93D8DB0 *Accident.part20.rar
    57F60F5396812E2FCE44107D076E9E0B *Accident.part21.rar
    4CC847BB2BC8A6584856CB48A727FC75 *Accident.part22.rar
    BAA477D6A8491C0C9B64D8F2862DB0C9 *Accident.part23.rar
    A10D436788703C6FC4FC73D4D8CE9798 *Accident.part24.rar
    ABC336FEB8A507F865BB7A266FF6AB9E *Accident.part25.rar
    61873AE12CECFA75AF4BDA3B19AB16C6 *Accident.part26.rar
    677B08BE9C2EE2F9A9D4B25EBC54F24D *Accident.part27.rar
    DE1C0005A74BACEAC176CC7C5EB4CF62 *Accident.part28.rar
    5083CA1B2073E546D34DAA61F8AA3FF3 *Accident.part29.rar
    EC3B5A673DD81D1B2D8B6F70578CCA21 *Accident.part30.rar
    8206C006D2742D943781835BC7D4673A *Accident.part31.rar
    91817C3066579FBA9BCF17254C0DE186 *Accident.part32.rar
    1C211F7FB86E7E86C8060A4FF1FDB9F7 *Accident.part33.rar
    8A93E444A2746F8B3E2594C797A3F383 *Accident.part34.rar
    FE52E08E5413431092281DDF1F3170BC *Accident.part35.rar
    10864766A7B8C2611D36D47529F95AAA *Accident.part36.rar
    68C67E9727FC2928186D6034BD9C8322 *Accident.part37.rar
    3C387ADDB651F91E2E285677401158C6 *Accident.part38.rar
    BCD7F00E289D44BE3012E6DE3B8DF146 *Accident.part39.rar
    EBBB933EEF5DD7D4C27A95462405A675 *Accident.part40.rar
    CBF8523A62807121824AAD6250945E50 *Accident.part41.rar
    CD4C73343D09606B8F1E2FF1D67C553E *Accident.part42.rar
    08061598C4347C0831D27C4BB46FF399 *Accident.part43.rar
    0AB8D176B0168E8BC193371ACEE11568 *Accident.part44.rar
    D5A6AA278E7EE99A98C08805F2E7677F *Accident.part45.rar
    78022415681D21257BD5875AB8F01752 *Accident.part46.rar
    84C50264641BD7F15FE264BA070A5D1A *Accident.part47.rar
    E706398EC5307D2BDD186EDFC049740F *Accident.part48.rar
    C8C11DB4BE7A07FF2A9815149B2116AE *Accident.part49.rar
    B8A185D33FC5717C4898A9CA2301933A *Accident.part50.rar
    70713D9A10A113748E26ED21F4BA0AAF *Accident.part51.rar
    7E9F1EB24BB64CAF4044BDB32E01238A *Accident.part52.rar
    12D4734D9577C0782E73A21DCB30F5C3 *Accident.part53.rar
    5A4B43827697841989C51C54D852C2E6 *Accident.part54.rar
    BB73A292AE44D4912C16BBCDEB7EF388 *Accident.part55.rar
    76A5BEC73F3644A7FC8600BACEF478EC *Accident.part56.rar
    A5FA5828A7B7BCF8FFF52EE4BFFAA9C8 *Accident.part57.rar
    5E4681E420F743E7E394DA66FE9609FB *Accident.part58.rar
    6EFF084150AE6BCB3C9DCA57D9BB0ECC *Accident.part59.rar
    CBB05FB891599B710BF3AEA9331FB5B0 *Accident.part60.rar
    011604AF4B6400914EC277C439DEE783 *Accident.part61.rar
    1B3B8D224FD646879235D57882F2B611 *Accident.part62.rar
    40B8E08D4F44159A3C8ABC5E66332D70 *Accident.part63.rar
    706DF705D375A9482E439C54D435BDCD *Accident.part64.rar
    989E4826371055BC1883521EF4B9B88D *Accident.part65.rar
    3D4CDBD239E47C80676C8DF40ADF8540 *Accident.part66.rar
    580BB0C2D73BE509A2CDE7E8D139733A *Accident.part67.rar
    ADFD0026429CFED81464AB0788C61502 *Accident.part68.rar
    
    Last edited by Thinl; 06-02-2011 at 04:05 AM. Reason: reupload part 36-68

  4. Who Said Thanks:

    There are too many to display.

  5. #3343

    Join Date
    Apr 2009
    Location
    Earth
    Posts
    28,207
    Thank(s)
    476/149,166
    Blog Entries
    2
    Rep Power
    41

    Default

    Journey.to.the.Center.of.the.Earth.720p.BluRay.x26 4-iNFAMOUS.ENG

    Show INFO
    Code:
    [LEFT]General
    Format                           : Matroska
    File size                        : 4.37 GiB
    Duration                         : 1h 32mn
    Overall bit rate                 : 6 757 Kbps
    Encoded date                     : UTC 2008-10-18 00:07:18
    Writing application              : mkvmerge v2.2.0 ('Turn It On Again') built on Mar  4 2008 12:58:26
    Writing library                  : libebml v0.7.7 + libmatroska v0.8.1
    
    Video
    ID                               : 1
    Format                           : AVC
    Format/Info                      : Advanced Video Codec
    Format profile                   : High@L4.1
    Format settings, CABAC           : Yes
    Format settings, ReFrames        : 5 frames
    Codec ID                         : V_MPEG4/ISO/AVC
    Duration                         : 1h 32mn
    Bit rate                         : 6 119 Kbps
    Width                            : 1 280 pixels
    Height                           : 720 pixels
    Display aspect ratio             : 16:9
    Frame rate                       : 23.976 fps
    Color space                      : YUV
    Chroma subsampling               : 4:2:0
    Bit depth                        : 8 bits
    Scan type                        : Progressive
    Bits/(Pixel*Frame)               : 0.277
    Stream size                      : 3.87 GiB (89%)
    Writing library                  : x264 core 65 r999 cc51047
    Language                         : English
    
    Audio
    ID                               : 2
    Format                           : AC-3
    Format/Info                      : Audio Coding 3
    Mode extension                   : CM (complete main)
    Codec ID                         : A_AC3
    Duration                         : 1h 32mn
    Bit rate mode                    : Constant
    Bit rate                         : 640 Kbps
    Channel(s)                       : 6 channels
    Channel positions                : Front: L C R, Side: L R, LFE
    Sampling rate                    : 48.0 KHz
    Bit depth                        : 16 bits
    Compression mode                 : Lossy
    Stream size                      : 424 MiB (9%)
    Language                         : English
    
    Text
    ID                               : 3
    Format                           : UTF-8
    Codec ID                         : S_TEXT/UTF8
    Codec ID/Info                    : UTF-8 Plain Text
    Language                         : English
    
    [/LEFT]


    Show DOWNLOAD
    You must click 'Thank You' before you can see the data contained here.
    You do not have sufficient rights to see the hidden data contained here.

    Show CHECKSUM
    Code:
    
    74BF49FB83A47DEF58981969DB14D179 *JourneytotheCenteroftheEarth.part01.rar
    251065FFFB8481FD050AE655333043AF *JourneytotheCenteroftheEarth.part02.rar
    9A859E3E3B4CF009A3961B96555348E8 *JourneytotheCenteroftheEarth.part03.rar
    7155B1056CDDDC4E199EDDBD7451A668 *JourneytotheCenteroftheEarth.part04.rar
    701556563B1C0EAA252BD1D8EB6F39C2 *JourneytotheCenteroftheEarth.part05.rar
    E8EFFC358C9FB21C8A2FD27825A125B7 *JourneytotheCenteroftheEarth.part06.rar
    EB2846AC7D5EF5D291BBB4AA63BB030F *JourneytotheCenteroftheEarth.part07.rar
    B757AD9AFE880DB02B7D4220E40CF15D *JourneytotheCenteroftheEarth.part08.rar
    32176AD8C36440F54DBDF1750E332CBD *JourneytotheCenteroftheEarth.part09.rar
    2FA7ABBA62AA1DD48D44EAA96F3A8543 *JourneytotheCenteroftheEarth.part10.rar
    6D3329D8EB94E8E79B22F284C73EF8C2 *JourneytotheCenteroftheEarth.part11.rar
    DF36828E46ADEA98C6D31DC3457CCECA *JourneytotheCenteroftheEarth.part12.rar
    A2AA22427C63955CC51E86F086B7CE5A *JourneytotheCenteroftheEarth.part13.rar
    F6DA3888910361FE9DA3E57DBEB1158A *JourneytotheCenteroftheEarth.part14.rar
    C9F380A44D8CE05970B4BAFC94CB0B60 *JourneytotheCenteroftheEarth.part15.rar
    BBA8D5569B7DBEA91E9511D0486642D8 *JourneytotheCenteroftheEarth.part16.rar
    C7469CB16AB5ABCF1EE5A50686977E1D *JourneytotheCenteroftheEarth.part17.rar
    E4B56E477AB7FAC78EDFE2C0DFA9469D *JourneytotheCenteroftheEarth.part18.rar
    853C59446692672831C9CAC8481A5BA4 *JourneytotheCenteroftheEarth.part19.rar
    2D6012171E2E7D5FC194EB1737C96FD3 *JourneytotheCenteroftheEarth.part20.rar
    8A98E9190B584AD80203F2A8C2ECAAB4 *JourneytotheCenteroftheEarth.part21.rar
    69F3A68CC52CB18E6B8132D017D6A0A1 *JourneytotheCenteroftheEarth.part22.rar
    7CEF526D368A7232C0C946210D3D1DF7 *JourneytotheCenteroftheEarth.part23.rar
    9B26F6EB26AC5770693D0F313A5DB280 *JourneytotheCenteroftheEarth.part24.rar
    0BA885CC33713D1D5B0458169B95014C *JourneytotheCenteroftheEarth.part25.rar
    83ED22DE330561FB485F74D61FABFA0C *JourneytotheCenteroftheEarth.part26.rar
    822A31BC35C4A5916EC96FE9C2EDDC62 *JourneytotheCenteroftheEarth.part27.rar
    7FA468E82439DB37363B7E001A2E8D7E *JourneytotheCenteroftheEarth.part28.rar
    B64D71F374AB1E8196505CF8069D68CE *JourneytotheCenteroftheEarth.part29.rar
    DEA6DB4994C2E3EAA2D0F24DE1E40B17 *JourneytotheCenteroftheEarth.part30.rar
    65818448C7509801C731E90015180FD0 *JourneytotheCenteroftheEarth.part31.rar
    28FBF26031C657FA743C25642B6FDD74 *JourneytotheCenteroftheEarth.part32.rar
    F03EA15BF48CDE0A7EFAC626BE3B408F *JourneytotheCenteroftheEarth.part33.rar
    E8F0224400E1F8FA2837F76F45A6492A *JourneytotheCenteroftheEarth.part34.rar
    F0525801FAA6D3CAC56E3FCEE1E930FF *JourneytotheCenteroftheEarth.part35.rar
    EF2AC1E69AF8436C738A94FCD8DD63A2 *JourneytotheCenteroftheEarth.part36.rar
    65B19297F2998B6A9BA6C44D14A86AD8 *JourneytotheCenteroftheEarth.part37.rar
    A5865BB73D39A92D349A23EE0818135C *JourneytotheCenteroftheEarth.part38.rar
    323D33BC3E6D22D11CB81C4F7A0FF132 *JourneytotheCenteroftheEarth.part39.rar
    BDEC1E5B9746D2941385124848D6B134 *JourneytotheCenteroftheEarth.part40.rar
    0E4D906AB29CA888DA23E0B96045BBBB *JourneytotheCenteroftheEarth.part41.rar
    33A787F82F7093DC616E381EB48F4E3F *JourneytotheCenteroftheEarth.part42.rar
    35FC5D6E0B8D13DDB9AE085B10539C96 *JourneytotheCenteroftheEarth.part43.rar
    7C8D36343AA06E48809D86E54E8C94AC *JourneytotheCenteroftheEarth.part44.rar
    0D345397CB4713C08D414E513D7C8F83 *JourneytotheCenteroftheEarth.part45.rar
    BF13B06B5F2B74D65311CFFC53AA5EA7 *JourneytotheCenteroftheEarth.part46.rar
    
    Last edited by Thinl; 07-02-2011 at 11:33 PM.

  6. Who Said Thanks:

    There are too many to display.

  7. #3344

    Join Date
    Apr 2009
    Location
    Earth
    Posts
    28,207
    Thank(s)
    200/149,166
    Blog Entries
    2
    Rep Power
    41

    Default

    Beneath Hill 60 [2010] 1080p BluRay x264

    Show INFO
    Code:
    General Format : Matroska File size : 8.74 GiB Duration : 2h 2mn Overall bit rate : 10.2 Mbps Encoded date : UTC 2010-08-17 10:20:43 Writing application : mkvmerge v2.6.0 ('Kelly watch the Stars') built on Mar 24 2009 15:23:17 Writing library : libebml v0.7.7 + libmatroska v0.8.1 Video ID : 1 Format : AVC Format/Info : Advanced Video Codec Format profile : High@L4.1 Format settings, CABAC : Yes Format settings, ReFrames : 5 frames Codec ID : V_MPEG4/ISO/AVC Duration : 2h 2mn Bit rate : 8 736 Kbps Width : 1 920 pixels Height : 800 pixels Display aspect ratio : 2.40:1 Frame rate : 23.976 fps Color space : YUV Chroma subsampling : 4:2:0 Bit depth : 8 bits Scan type : Progressive Bits/(Pixel*Frame) : 0.237 Stream size : 7.28 GiB (83%) Writing library : x264 core 104 r1688 0b36c6d Language : English Audio ID : 2 Format : DTS Format/Info : Digital Theater Systems Codec ID : A_DTS Duration : 2h 2mn Bit rate mode : Constant Bit rate : 1 510 Kbps Channel(s) : 6 channels Channel positions : Front: L C R, Side: L R, LFE Sampling rate : 48.0 KHz Bit depth : 16 bits Compression mode : Lossy Stream size : 1.29 GiB (15%)


    Show DOWNLOAD
    You must click 'Thank You' before you can see the data contained here.
    You do not have sufficient rights to see the hidden data contained here.

    Code:
    Kalo ada masalah silahkan lapor via PM atau VM
    Cek Checksum pakai exactfile
    
    Last edited by Thinl; 06-02-2011 at 04:21 AM.

  8. Who Said Thanks:

    There are too many to display.

  9. #3345

    Join Date
    Jul 2010
    Location
    BAnduNG
    Posts
    44
    Thank(s)
    2/6
    Rep Power
    0

    Default

    Quote Originally Posted by dickka View Post
    lapor star wars episode IV, V ,VI , I , II, III tidak ada masalah sama sekali extract maupun movienya.. tks buat uploader.. thinl.. :)



    waduh,,,agan uda dapat semua ni,,, gan,,star wars V nya kaga ada masalah?? ane yg part 29 corrupt ni..

  10. Who Said Thanks:


  11. #3346

    Join Date
    Jul 2010
    Location
    BAnduNG
    Posts
    44
    Thank(s)
    1/6
    Rep Power
    0

    Default

    Quote Originally Posted by anotherside View Post
    gak bisa juga bro hahaha
    yasudah deh saya relakan saja nonton episode V nya yang DVD-rip
    thanks banget yah.......
    ane ounya kabar baik untuk anda bro. pas di ekstrak centang aja tulisan "keep file broken". ane masalhny juga gitu.and SUKSES!!!! monggo di coba :)

  12. Who Said Thanks:


  13. #3347

    Join Date
    Nov 2009
    Location
    Gates of Heaven
    Posts
    802
    Thank(s)
    1/2,481
    Rep Power
    5

    Default

    Quote Originally Posted by tonynakal View Post
    ane ounya kabar baik untuk anda bro. pas di ekstrak centang aja tulisan "keep file broken". ane masalhny juga gitu.and SUKSES!!!! monggo di coba :)
    it works bro, thanks alot

  14. Who Said Thanks:


  15. #3348

    Join Date
    May 2010
    Location
    Jakarta Utara
    Posts
    333
    Thank(s)
    36/66
    Rep Power
    0

    Default

    Quote Originally Posted by kycha View Post
    Blood: The Last Vampire (2009) 720p.Bluray.x264-CBGB


    Code:
    ViDEO ......: 1280*544 @ 5553 kbps
    AUDiO ......: 1536 kbps DTS
    RUNTiME ....: 88 mins
    Size .......: 4479 MB
    SUBTiTLES ..: English
    *** hidden content ***

    Code:
    Donlot semua file, kemudian delete .rar setelah itu gabungkan dengan HJSPLIT
    iss:
    Akhirnya bisa jg, padahal uda sempet putus asa buat nonton kualitas bluray..
    ternyata rename sesuai judul file, contoh :
    cbgb-btlv720p.mkv.001,002 dan seterusnya baru dijoin pake hjsplit, anyway thx bro kycha..

  16. #3349

    Join Date
    May 2008
    Location
    jakarta
    Posts
    78
    Thank(s)
    2/378
    Rep Power
    0

    Default

    Quote Originally Posted by tonynakal View Post
    waduh,,,agan uda dapat semua ni,,, gan,,star wars V nya kaga ada masalah?? ane yg part 29 corrupt ni..
    gak ada sama sekali.. waktu download & extract nya selalu pake 7zip... coba ikutin sarannya bro tonny nakal semoga berhasil.. :)

  17. Who Said Thanks:


  18. #3350

    Join Date
    Apr 2009
    Location
    Earth
    Posts
    28,207
    Thank(s)
    213/149,166
    Blog Entries
    2
    Rep Power
    41

    Default

    Jumanji.1995.720p.HDTV.x264-iLL

    Show INFO
    Code:
    General Format : Matroska File size : 4.37 GiB Duration : 1h 44mn Overall bit rate : 6 011 Kbps Encoded date : UTC 2007-10-04 09:36:28 Writing application : mkvmerge v2.1.0 ('Another Place To Fall') built on Aug 19 2007 13:45:34 Writing library : libebml v0.7.7 + libmatroska v0.8.1 Video ID : 1 Format : AVC Format/Info : Advanced Video Codec Format profile : High@L5.1 Format settings, CABAC : Yes Format settings, ReFrames : 8 frames Codec ID : V_MPEG4/ISO/AVC Duration : 1h 44mn Bit rate : 5 560 Kbps Width : 1 280 pixels Height : 720 pixels Display aspect ratio : 16:9 Frame rate : 23.976 fps Color space : YUV Chroma subsampling : 4:2:0 Bit depth : 8 bits Scan type : Progressive Bits/(Pixel*Frame) : 0.252 Stream size : 3.96 GiB (91%) Writing library : x264 core 56 svn-680 Language : English Audio ID : 2 Format : AC-3 Format/Info : Audio Coding 3 Mode extension : CM (complete main) Codec ID : A_AC3 Duration : 1h 44mn Bit rate mode : Constant Bit rate : 448 Kbps Channel(s) : 6 channels Channel positions : Front: L C R, Side: L R, LFE Sampling rate : 48.0 KHz Bit depth : 16 bits Compression mode : Lossy Stream size : 334 MiB (7%) Language : English Text ID : 3 Format : SSA Codec ID : S_TEXT/SSA Codec ID/Info : Sub Station Alpha Compression mode : Lossless Language : English


    Show DOWNLOAD
    You must click 'Thank You' before you can see the data contained here.
    You do not have sufficient rights to see the hidden data contained here.

    Show CHECKSUM
    Code:
    A4389922E392870A8C5B3A57A75F5B04 *Jumanji.part01.rar
    2497B491448D753771B0976E18502D11 *Jumanji.part02.rar
    22840F830C65D4F2A5C3B7C4F75FFAE8 *Jumanji.part03.rar
    B8E8D31055B6A57E8C2A33761AC86F8E *Jumanji.part04.rar
    1308D37D9D66A4EECB4B33F24FAE6164 *Jumanji.part05.rar
    BFB753570FFD1855ED04EB2828787CE2 *Jumanji.part06.rar
    254F8EFB177354D873B0436453E86EA4 *Jumanji.part07.rar
    632D84A1D024F743EF3C77191E871AAE *Jumanji.part08.rar
    6831E0EF19A3B115121B2C03997236B2 *Jumanji.part09.rar
    A14D1B2F536D664176C999BEBE3E5C45 *Jumanji.part10.rar
    5B0DC8A45D7B0956D387255163A86116 *Jumanji.part11.rar
    0FE6F7C67555112DA144261D714EA743 *Jumanji.part12.rar
    836FA3118966CA22D6E2E100846A223B *Jumanji.part13.rar
    00CEF2760B4F36CE9B652912AAB36AB6 *Jumanji.part14.rar
    512B720B80E63EB2F73781DCF359B1F3 *Jumanji.part15.rar
    9CB29D7EB5B83F5FC8A6DB6334DB313F *Jumanji.part16.rar
    E677AEAC6662CDE3268B5B376E9D8EBB *Jumanji.part17.rar
    E52E7E0F6D1314239BCE1CCA27953488 *Jumanji.part18.rar
    E820ABA0086EA2DEB58F94F4F0920E12 *Jumanji.part19.rar
    017984D43AE0A9425BD87C207761FDBF *Jumanji.part20.rar
    8492DFDDF473427F9650DBFC56854B28 *Jumanji.part21.rar
    C8722AAB19D90FE78E0FDDA28358122C *Jumanji.part22.rar
    FFB70E6B43F5D2E5764E0FC3EF3B8CC4 *Jumanji.part23.rar
    AEA51CA3F3DF36F294724748F9D42B8B *Jumanji.part24.rar
    32B5E4D03D3263F7A230290C317D2104 *Jumanji.part25.rar
    1898CDF699DC7788EF19A297E82F4CEB *Jumanji.part26.rar
    EE3CC80F496CA3B9C108D2078C048A9D *Jumanji.part27.rar
    9758E3CD4ABD1D2B34D922DC4B2E302B *Jumanji.part28.rar
    94981A2AAFD8F1B516B59BBDD3568112 *Jumanji.part29.rar
    827ECF1B47D3A68A435A22CA0275C7CA *Jumanji.part30.rar
    6F1303F58C8F8AA91FB926AA6EFED920 *Jumanji.part31.rar
    BEDE564F29823827FC236350B91FB9A7 *Jumanji.part32.rar
    86B083F0EACDDCCF8F09E21B759C46C2 *Jumanji.part33.rar
    431EAF32EEB832BE68B3C0EA6F460E04 *Jumanji.part34.rar
    D61D15C906DC0C4CAF40DF64F7824909 *Jumanji.part35.rar
    BECDF9A430A54978708C60BEC69999FB *Jumanji.part36.rar
    B798585DE7619D5D6C9F52D2AA072C09 *Jumanji.part37.rar
    EB2E5E8FA6C51E08DBE2FBA4A62D0989 *Jumanji.part38.rar
    4CF0E6EA3E5FC323BBF2159E84A71582 *Jumanji.part39.rar
    B3C8734FE34994CEA2584605EF92073F *Jumanji.part40.rar
    1F71B974165B448ADAE4530234395BDA *Jumanji.part41.rar
    960A215BA283E085CED74D41A88597D7 *Jumanji.part42.rar
    D30A644BFAB38227C925B9B36760885F *Jumanji.part43.rar
    D811993143CFA47DF0D84DE9C3124867 *Jumanji.part44.rar
    FBEDD9EA158943C31795D65F94CF73B1 *Jumanji.part45.rar
    DCDE9657DDA6033677F4536010041568 *Jumanji.part46.rar
    Last edited by Thinl; 07-02-2011 at 11:36 PM.

  19. Who Said Thanks:

    There are too many to display.

Page 335 of 583 FirstFirst ... 235285325331332333334335336337338339345385435 ... LastLast

Bookmarks

Posting Permissions

  • You may not post new threads
  • You may not post replies
  • You may not post attachments
  • You may not edit your posts
  •  
Indowebster is proudly powered by PT. Gudang Data Indonesia