Page 349 of 583 FirstFirst ... 249299339345346347348349350351352353359399449 ... LastLast
Results 3,481 to 3,490 of 5830

Thread: [Archive] HD Collection | Lokal ONLY | I
http://idws.in/18136

  1. #3481

    Join Date
    Apr 2009
    Location
    Earth
    Posts
    28,628
    Thank(s)
    855/154,365
    Blog Entries
    2
    Rep Power
    47

    Default

    The Sixth Sense [1999] [1080p]

    Show INFO
    Code:
    General
    Format                           : Matroska
    File size                        : 7.95 GiB
    Duration                         : 1h 47mn
    Overall bit rate                 : 10.6 Mbps
    Encoded date                     : UTC 2009-04-06 02:02:53
    Writing application              : mkvmerge v1.7.0 ('What Do You Take Me For') built on Apr 28 2006 17:20:19
    Writing library                  : libebml v0.7.7 + libmatroska v0.8.0
    
    Video
    ID                               : 1
    Format                           : AVC
    Format/Info                      : Advanced Video Codec
    Format profile                   : High@L5.0
    Format settings, CABAC           : Yes
    Format settings, ReFrames        : 5 frames
    Codec ID                         : V_MPEG4/ISO/AVC
    Duration                         : 1h 47mn
    Bit rate                         : 9 950 Kbps
    Width                            : 1 920 pixels
    Height                           : 1 040 pixels
    Display aspect ratio             : 16:9
    Frame rate                       : 23.976 fps
    Color space                      : YUV
    Chroma subsampling               : 4:2:0
    Bit depth                        : 8 bits
    Scan type                        : Progressive
    Bits/(Pixel*Frame)               : 0.208
    Stream size                      : 7.31 GiB (92%)
    Writing library                  : x264 core 60 r928M 4816918
    Language                         : English
    
    Audio
    ID                               : 2
    Format                           : AC-3
    Format/Info                      : Audio Coding 3
    Mode extension                   : CM (complete main)
    Codec ID                         : A_AC3
    Duration                         : 1h 47mn
    Bit rate mode                    : Constant
    Bit rate                         : 640 Kbps
    Channel(s)                       : 6 channels
    Channel positions                : Front: L C R, Side: L R, LFE
    Sampling rate                    : 48.0 KHz
    Bit depth                        : 16 bits
    Compression mode                 : Lossy
    Stream size                      : 492 MiB (6%)
    Language                         : English
    
    Text
    ID                               : 3
    Format                           : UTF-8
    Codec ID                         : S_TEXT/UTF8
    Codec ID/Info                    : UTF-8 Plain Text
    Language                         : English
    
    

    Show DOWNLOAD
    You must click 'Thank You' before you can see the data contained here.
    You do not have sufficient rights to see the hidden data contained here.

    Code:
    Download semua file. Hapus .rar dan join dengan HJSplit
    Kalo ada masalah silahkan lapor via PM atau VM
    Cek Checksum pakai exactfile
    
    Last edited by Thinl; 08-02-2011 at 02:02 AM.

  2. Who Said Thanks:

    There are too many to display.

  3. #3482

    Join Date
    Apr 2009
    Location
    Earth
    Posts
    28,628
    Thank(s)
    571/154,365
    Blog Entries
    2
    Rep Power
    47

    Default

    22 Bullets [2010] [1080p]

    Show INFO
    Code:
    General
    Format                           : Matroska
    File size                        : 8.74 GiB
    Duration                         : 1h 57mn
    Overall bit rate                 : 10.7 Mbps
    Encoded date                     : UTC 2010-09-17 00:41:34
    Writing application              : mkvmerge v3.3.0 ('Language') built on Mar 24 2010 14:59:24
    Writing library                  : libebml v0.8.0 + libmatroska v0.9.0
    
    Video
    ID                               : 1
    Format                           : AVC
    Format/Info                      : Advanced Video Codec
    Format profile                   : High@L4.1
    Format settings, CABAC           : Yes
    Format settings, ReFrames        : 5 frames
    Codec ID                         : V_MPEG4/ISO/AVC
    Duration                         : 1h 57mn
    Bit rate                         : 9 187 Kbps
    Width                            : 1 920 pixels
    Height                           : 824 pixels
    Display aspect ratio             : 2.35:1
    Frame rate                       : 24.000 fps
    Color space                      : YUV
    Chroma subsampling               : 4:2:0
    Bit depth                        : 8 bits
    Scan type                        : Progressive
    Bits/(Pixel*Frame)               : 0.242
    Stream size                      : 7.33 GiB (84%)
    Writing library                  : x264 core 104 r1713 c276662
    Language                         : French
    
    Audio
    ID                               : 2
    Format                           : DTS
    Format/Info                      : Digital Theater Systems
    Codec ID                         : A_DTS
    Duration                         : 1h 57mn
    Bit rate mode                    : Constant
    Bit rate                         : 1 510 Kbps
    Channel(s)                       : 6 channels
    Channel positions                : Front: L C R, Side: L R, LFE
    Sampling rate                    : 48.0 KHz
    Bit depth                        : 24 bits
    Compression mode                 : Lossy
    Stream size                      : 1.23 GiB (14%)
    Language                         : French
    
    Text
    ID                               : 3
    Format                           : UTF-8
    Codec ID                         : S_TEXT/UTF8
    Codec ID/Info                    : UTF-8 Plain Text
    Language                         : English
    
    

    Show DOWNLOAD
    You must click 'Thank You' before you can see the data contained here.
    You do not have sufficient rights to see the hidden data contained here.

    Code:
    Download semua file. Hapus .rar dan join dengan HJSplit
    Kalo ada masalah silahkan lapor via PM atau VM
    Cek Checksum pakai exactfile
    
    Last edited by Thinl; 06-02-2011 at 03:04 AM.

  4. Who Said Thanks:

    There are too many to display.

  5. #3483

    Join Date
    Jun 2010
    Location
    East Blue
    Posts
    622
    Thank(s)
    14/2,979
    Rep Power
    5

    Default

    permisi bro
    wa cma mw kasih info aja walo mngkn tak berguna
    Unstoppable.2010.Bluray.720p.DTS.x264-CHD

    Death Race 2 2010 BRRip 720p H264-3Li

    The.Ghost.Writer.2010.720p.BluRay.X264-AMIABLE

    Legend.of.the.Guardians.2010.720p.BluRay.x264-CBGB

    Date Night 2010 BRRip 720p H264-3Li

    Robin.Hood.Directors.Cut.2010.720p.BluRay.DTS.x264-titul

    How.To.Train.Your.Dragon.720p.Bluray.x264-CBGB

    Devil 2010 720p BRRip x264-HDLiTE


    smua na gda masalah (walo yg Legend.of.the.Guardians.2010.720p.BluRay.x264-CBGB wa stress donlod na gr" ampir smua server 28 , harus ditinggal nyala d komp na biar bs selese donlod)
    thx to uploaders :D :D :D

  6. #3484

    Join Date
    Apr 2009
    Location
    Earth
    Posts
    28,628
    Thank(s)
    276/154,365
    Blog Entries
    2
    Rep Power
    47

    Default

    Let Me In [2010] [720p]

    Show INFO
    Code:
    
    General
    Format                           : Matroska
    File size                        : 4.36 GiB
    Duration                         : 1h 55mn
    Overall bit rate                 : 5 394 Kbps
    Encoded date                     : UTC 2011-01-20 03:57:13
    Writing application              : mkvmerge v4.0.0 ('The Stars were mine') built on Jun  6 2010 16:18:42
    Writing library                  : libebml v1.0.0 + libmatroska v1.0.0
    
    Video
    ID                               : 1
    Format                           : AVC
    Format/Info                      : Advanced Video Codec
    Format profile                   : High@L4.1
    Format settings, CABAC           : Yes
    Format settings, ReFrames        : 5 frames
    Codec ID                         : V_MPEG4/ISO/AVC
    Duration                         : 1h 55mn
    Bit rate                         : 4 752 Kbps
    Width                            : 1 280 pixels
    Height                           : 536 pixels
    Display aspect ratio             : 2.35:1
    Frame rate                       : 23.976 fps
    Color space                      : YUV
    Chroma subsampling               : 4:2:0
    Bit depth                        : 8 bits
    Scan type                        : Progressive
    Bits/(Pixel*Frame)               : 0.289
    Stream size                      : 3.76 GiB (86%)
    Writing library                  : x264 core 112 r1867 22bfd31
    Language                         : English
    
    Audio
    ID                               : 2
    Format                           : AC-3
    Format/Info                      : Audio Coding 3
    Mode extension                   : CM (complete main)
    Codec ID                         : A_AC3
    Duration                         : 1h 55mn
    Bit rate mode                    : Constant
    Bit rate                         : 640 Kbps
    Channel(s)                       : 6 channels
    Channel positions                : Front: L C R, Side: L R, LFE
    Sampling rate                    : 48.0 KHz
    Bit depth                        : 16 bits
    Compression mode                 : Lossy
    Stream size                      : 530 MiB (12%)
    
    
    


    Show DOWNLOAD
    You must click 'Thank You' before you can see the data contained here.
    You do not have sufficient rights to see the hidden data contained here.

    Code:
    Download semua file. Hapus .rar dan join dengan HJSplit
    Kalo ada masalah silahkan lapor via PM atau VM
    Cek Checksum pakai exactfile
    
    Last edited by Thinl; 10-02-2011 at 11:12 AM.

  7. Who Said Thanks:

    There are too many to display.

  8. #3485

    Join Date
    Apr 2009
    Location
    Earth
    Posts
    28,628
    Thank(s)
    304/154,365
    Blog Entries
    2
    Rep Power
    47

    Default

    Stone.LIMITED.720p.Bluray.x264-CBGB

    Show INFO
    Code:
    General
    Format                           : Matroska
    File size                        : 4.37 GiB
    Duration                         : 1h 45mn
    Overall bit rate                 : 5 956 Kbps
    Encoded date                     : UTC 2008-12-25 23:56:52
    Writing application              : mkvmerge v2.9.8 ('C'est le bon') built on Aug 21 2009 13:21:42
    Writing library                  : libebml v0.7.7 + libmatroska v0.8.1
    
    Video
    ID                               : 1
    Format                           : AVC
    Format/Info                      : Advanced Video Codec
    Format profile                   : High@L4.1
    Format settings, CABAC           : Yes
    Format settings, ReFrames        : 5 frames
    Codec ID                         : V_MPEG4/ISO/AVC
    Duration                         : 1h 45mn
    Bit rate                         : 5 315 Kbps
    Width                            : 1 280 pixels
    Height                           : 528 pixels
    Display aspect ratio             : 2.40:1
    Frame rate                       : 23.976 fps
    Color space                      : YUV
    Chroma subsampling               : 4:2:0
    Bit depth                        : 8 bits
    Scan type                        : Progressive
    Bits/(Pixel*Frame)               : 0.328
    Stream size                      : 3.81 GiB (87%)
    Writing library                  : x264 core 112 r1834 a51816a
    Language                         : English
    
    Audio
    ID                               : 2
    Format                           : AC-3
    Format/Info                      : Audio Coding 3
    Mode extension                   : CM (complete main)
    Codec ID                         : A_AC3
    Duration                         : 1h 45mn
    Bit rate mode                    : Constant
    Bit rate                         : 640 Kbps
    Channel(s)                       : 6 channels
    Channel positions                : Front: L C R, Side: L R, LFE
    Sampling rate                    : 48.0 KHz
    Bit depth                        : 16 bits
    Compression mode                 : Lossy
    Stream size                      : 481 MiB (11%)
    Language                         : English
    
    Menu
    00:00:00.000                     : en:00:00:00.000
    00:09:38.745                     : en:00:09:38.745
    00:17:07.693                     : en:00:17:07.693
    00:25:05.921                     : en:00:25:05.921
    00:32:24.484                     : en:00:32:24.484
    00:41:07.090                     : en:00:41:07.090
    00:50:20.017                     : en:00:50:20.017
    00:58:36.805                     : en:00:58:36.805
    01:07:31.130                     : en:01:07:31.130
    01:19:07.993                     : en:01:19:07.993
    01:27:08.723                     : en:01:27:08.723
    01:41:15.403                     : en:01:41:15.403
    
    


    Show DOWNLOAD
    You must click 'Thank You' before you can see the data contained here.
    You do not have sufficient rights to see the hidden data contained here.

    Code:
    Download semua file. Hapus .rar dan join dengan HJSplit
    Kalo ada masalah silahkan lapor via PM atau VM
    Cek Checksum pakai exactfile
    
    Last edited by Thinl; 09-10-2011 at 10:45 AM.

  9. Who Said Thanks:

    There are too many to display.

  10. #3486

    Join Date
    Aug 2009
    Location
    Borneo
    Posts
    121
    Thank(s)
    3/12
    Rep Power
    0

    Default

    Laporan bos Thinl 22 Bullets [2010] [1080p] part 13 sepertinya error mohon pencerahannya thanks

  11. Who Said Thanks:


  12. #3487

    Join Date
    Apr 2009
    Location
    Earth
    Posts
    28,628
    Thank(s)
    1/154,365
    Blog Entries
    2
    Rep Power
    47

    Default

    Quote Originally Posted by bongkas View Post
    Laporan bos Thinl 22 Bullets [2010] [1080p] part 13 sepertinya error mohon pencerahannya thanks
    kayaknya error waktu upload, lagi coba di re upload

    ---
    uda di upload, silahkan di cek
    Last edited by Thinl; 04-02-2011 at 07:32 AM.

  13. Who Said Thanks:


  14. #3488

    Join Date
    Nov 2009
    Location
    Jakarta
    Posts
    19
    Thank(s)
    1/54
    Rep Power
    0

    Default

    Quote Originally Posted by AnthraX View Post

    Quote Originally Posted by wakjho View Post
    Gan, maap nanya, koq audio-nya di beberapa film koq ke-detect sama receiver ane cuma 2 channel ya? padahal info di KMPlayer tertulis 5.1, mohon pencerahan-nya, apa ada yang salah dengan settingan ane ya... tq before gan...


    coba masuk settingan MPCnya
    kalo gak,,uninstall,,terus install lagi aja
    Udah gan, tp ane perhatiin yg ga kedetect di receiver tuh film yang audio format-nya AAC, kalo AC3 & DTS ke-detect 6ch. (3/2/.1) ane pake denon 1911.
    makasih sebelomnya, gan.
    Last edited by wakjho; 04-02-2011 at 12:55 PM.

  15. Who Said Thanks:


  16. #3489

    Join Date
    Nov 2009
    Location
    Meridian, MS
    Posts
    874
    Thank(s)
    63/2,453
    Blog Entries
    1
    Rep Power
    5

    Default Batman Begins [2005] 1080p

    cm mau nambahin
    film ini ada di post #1 yg hilang bbrp bulan yg lalu

    ===========



    Hidden Block (you must be registered):
    You do not have sufficient rights to see the hidden data contained here.


    credit to ferius, the uploader

    Jika ada masalah, silahkan hubungi bro ferius via PM atau VM.
    Jangan hubungi saya karena saya hanya post saja, tidak meng-upload.
    Last edited by izzie; 01-12-2012 at 06:27 PM.

  17. Who Said Thanks:

    There are too many to display.

  18. #3490

    Join Date
    Nov 2009
    Location
    ENJUKU
    Posts
    1,131
    Thank(s)
    12/33,208
    Blog Entries
    6
    Rep Power
    7

    Default

    sekilas info :

    The.Other.Guys.Extended.2010.720p.Bluray.x264.DTS-HDChina .. no problemo

    Quote Originally Posted by Kenzaki View Post
    cm mau nambahin
    film ini ada di post #1 yg hilang bbrp bulan yg lalu

    ===========

    [IMG]img[/IMG]

    *** hidden content ***

    credit to ferius, the uploader
    wah, thx bro dah d post ulang .. klo g sala kemaren g bs diakses gr2 copy lgsg dr direct link-nya *langsung donlod klo d kik* .. makanya banyak yg g bs akses,, trus ilang deng seiring adanya index baru ..

Page 349 of 583 FirstFirst ... 249299339345346347348349350351352353359399449 ... LastLast

Bookmarks

Posting Permissions

  • You may not post new threads
  • You may not post replies
  • You may not post attachments
  • You may not edit your posts
  •  
Indowebster is proudly powered by PT. Gudang Data Indonesia