Page 362 of 583 FirstFirst ... 262312352358359360361362363364365366372412462 ... LastLast
Results 3,611 to 3,620 of 5830

Thread: [Archive] HD Collection | Lokal ONLY | I
http://idws.in/18136

  1. #3611

    Join Date
    Apr 2009
    Location
    Earth
    Posts
    28,536
    Thank(s)
    18/153,149
    Blog Entries
    2
    Rep Power
    46

    Default

    Bambi.1942.720p.BRRip.XviD.AC3-Rx

    Show INFO
    Code:
    General
    Format                           : Matroska
    File size                        : 1.20 GiB
    Duration                         : 1h 9mn
    Overall bit rate                 : 2 464 Kbps
    Encoded date                     : UTC 2011-02-17 11:14:13
    Writing application              : mkvmerge v4.3.0 ('Escape from the Island') built on Sep  5 2010 10:30:51
    Writing library                  : libebml v1.0.0 + libmatroska v1.0.0
    
    Video
    ID                               : 1
    Format                           : MPEG-4 Visual
    Format profile                   : Advanced Simple@L5
    Format settings, BVOP            : Yes
    Format settings, QPel            : No
    Format settings, GMC             : No warppoints
    Format settings, Matrix          : Default (H.263)
    Codec ID                         : XVID
    Codec ID/Hint                    : XviD
    Duration                         : 1h 9mn
    Bit rate                         : 1 967 Kbps
    Width                            : 960 pixels
    Height                           : 720 pixels
    Display aspect ratio             : 4:3
    Frame rate                       : 23.976 fps
    Color space                      : YUV
    Chroma subsampling               : 4:2:0
    Bit depth                        : 8 bits
    Scan type                        : Progressive
    Compression mode                 : Lossy
    Bits/(Pixel*Frame)               : 0.119
    Stream size                      : 983 MiB (80%)
    Writing library                  : XviD 1.2.1 (UTC 2008-12-04)
    Language                         : English
    
    Audio
    ID                               : 2
    Format                           : AC-3
    Format/Info                      : Audio Coding 3
    Mode extension                   : CM (complete main)
    Muxing mode                      : Header stripping
    Codec ID                         : A_AC3
    Duration                         : 1h 9mn
    Bit rate mode                    : Constant
    Bit rate                         : 448 Kbps
    Channel(s)                       : 6 channels
    Channel positions                : Front: L C R, Side: L R, LFE
    Sampling rate                    : 48.0 KHz
    Bit depth                        : 16 bits
    Compression mode                 : Lossy
    Stream size                      : 224 MiB (18%)
    Title                            : English
    Language                         : English
    
    Text
    ID                               : 3
    Format                           : ASS
    Codec ID                         : S_TEXT/ASS
    Codec ID/Info                    : Advanced Sub Station Alpha
    Compression mode                 : Lossless
    Title                            : English
    Language                         : English
    
    


    DOWNLOAD

  2. #3612

    Join Date
    May 2009
    Location
    Cellphone
    Posts
    126
    Thank(s)
    12/114
    Rep Power
    0

    Default

    Quote Originally Posted by bleui View Post
    mo ikutan sharing ya...

    uploading in proccess....... :yawn::yawn::yawn:


    1080

    *** hidden content ***

    1080

    *** hidden content ***

    1080

    *** hidden content ***

    hapus rar join dengan HJsplit

    more to come....

    ga nolak cendolnya
    gladiator ny ad ke potong pas adegan seru ny...T.T
    Last edited by GossipBoy; 18-02-2011 at 06:59 PM.

  3. #3613

    Join Date
    Apr 2009
    Location
    Earth
    Posts
    28,536
    Thank(s)
    0/153,149
    Blog Entries
    2
    Rep Power
    46

    Default

    Quote Originally Posted by GossipBoy View Post
    gladiator ny ad ke potong pas adegan seru ny...T.T
    ada yang kurang mungkin downloadnya

    btw, image jangan di quote lagi kk

  4. #3614

    Join Date
    Apr 2009
    Location
    Earth
    Posts
    28,536
    Thank(s)
    351/153,149
    Blog Entries
    2
    Rep Power
    46

    Default

    The.Uninvited.2009.720p.BluRay.AC3.X264

    Show INFO
    Code:
    General
    Format                           : Matroska
    File size                        : 1.64 GiB
    Duration                         : 1h 27mn
    Overall bit rate                 : 2 686 Kbps
    Movie name                       : The.Uninvited.2009.720p.BluRay.AC3.X264-JoN
    Encoded date                     : UTC 2009-04-20 03:46:36
    Writing application              : mkvmerge v2.6.0 ('Kelly watch the Stars') built on Mar 24 2009 15:23:17
    Writing library                  : libebml v0.7.7 + libmatroska v0.8.1
    
    Video
    ID                               : 1
    Format                           : AVC
    Format/Info                      : Advanced Video Codec
    Format profile                   : High@L4.1
    Format settings, CABAC           : Yes
    Format settings, ReFrames        : 4 frames
    Codec ID                         : V_MPEG4/ISO/AVC
    Duration                         : 1h 27mn
    Bit rate                         : 2 248 Kbps
    Width                            : 1 280 pixels
    Height                           : 720 pixels
    Display aspect ratio             : 16:9
    Frame rate                       : 23.976 fps
    Color space                      : YUV
    Chroma subsampling               : 4:2:0
    Bit depth                        : 8 bits
    Scan type                        : Progressive
    Bits/(Pixel*Frame)               : 0.102
    Stream size                      : 1.37 GiB (84%)
    Title                            : Video_1
    Writing library                  : x264 core 67 r1139M 1024283
    Language                         : English
    
    Audio
    ID                               : 2
    Format                           : AC-3
    Format/Info                      : Audio Coding 3
    Mode extension                   : CM (complete main)
    Codec ID                         : A_AC3
    Duration                         : 1h 27mn
    Bit rate mode                    : Constant
    Bit rate                         : 384 Kbps
    Channel(s)                       : 6 channels
    Channel positions                : Front: L C R, Side: L R, LFE
    Sampling rate                    : 48.0 KHz
    Bit depth                        : 16 bits
    Compression mode                 : Lossy
    Stream size                      : 240 MiB (14%)
    Title                            : Audio_1
    Language                         : English
    
    Text
    ID                               : 3
    Format                           : UTF-8
    Codec ID                         : S_TEXT/UTF8
    Codec ID/Info                    : UTF-8 Plain Text
    Title                            : Subtitle_1
    Language                         : English
    
    

    Show DOWNLOAD
    You must click 'Thank You' before you can see the data contained here.
    You do not have sufficient rights to see the hidden data contained here.

    Code:
    Download semua file. Hapus .rar dan join dengan HJSplit
    Kalo ada masalah silahkan lapor via PM atau VM
    Cek Checksum pakai exactfile
    

  5. Who Said Thanks:

    There are too many to display.

  6. #3615

    Join Date
    Dec 2010
    Location
    Posts
    3,277
    Thank(s)
    0/16,663
    Blog Entries
    12
    Rep Power
    9

    Default

    LoTR 2 ny gak bisa dibuka tuh...

  7. #3616

    Join Date
    Dec 2010
    Location
    Posts
    3,277
    Thank(s)
    20/16,663
    Blog Entries
    12
    Rep Power
    9

    Default

    Quote Originally Posted by ichwe View Post
    silah-kan sedooootttt .................. untuk liat Link click Tombol ini


    Show link ada disini
    enjoy jakarta



    Show link ada disini
    enjoy jakarta


    Show link ada disini
    enjoy jakarta



    Show link ada disini
    enjoy jakarta



    Show link ada disini
    enjoy jakarta


    Coming Soon :


    Show link ada disini
    enjoy jakarta



    Show link ada disini
    enjoy jakarta




    LoTR 2 ny gak bisa dibuka tuh..
    ada solusinya gak?

  8. #3617

    Join Date
    May 2009
    Location
    Cellphone
    Posts
    126
    Thank(s)
    0/114
    Rep Power
    0

    Default

    Quote Originally Posted by Thinl View Post
    ada yang kurang mungkin downloadnya

    btw, image jangan di quote lagi kk
    ga tw yg krng ny apaan nih T.T'
    perasaan da smua 1-9...kejadian sama kayak bruce lee kmren...
    td jg ane test join yg 8 ny ane pisah setelah complate ane test play ane cepetin dia buffering dl trus pas bag akhir ga k play langsung play awal
    beda ma kejadian ane td, td langsung ngelangkah ke akhir dan ttp bs play...
    lg coba dl ulang part 7ma8 ny...moga2 bisa
    Last edited by GossipBoy; 18-02-2011 at 07:07 PM.

  9. #3618

    Join Date
    May 2008
    Location
    J.a.k.a.r.t.a
    Posts
    21,682
    Thank(s)
    121/158,553
    Blog Entries
    8
    Rep Power
    27

    Default

    Juno 1080p (2007)

    Video Info

    Code:
    General
    Complete name                    : Juno.1080p.mkv
    Format                           : Matroska
    File size                        : 11.2 GiB
    Duration                         : 1h 36mn
    Overall bit rate                 : 16.6 Mbps
    Movie name                       : Shadowlord
    Encoded date                     : UTC 2008-06-14 15:49:57
    Writing application              : mkvmerge v2.1.0 ('Another Place To Fall') built on Aug 19 2007 13:40:07
    Writing library                  : libebml v0.7.7 + libmatroska v0.8.1
    
    Video
    ID                               : 1
    Format                           : AVC
    Format/Info                      : Advanced Video Codec
    Format profile                   : High@L5.1
    Format settings, CABAC           : Yes
    Format settings, ReFrames        : 6 frames
    Codec ID                         : V_MPEG4/ISO/AVC
    Duration                         : 1h 36mn
    Bit rate                         : 14.6 Mbps
    Width                            : 1 920 pixels
    Height                           : 1 040 pixels
    Display aspect ratio             : 16:9
    Frame rate                       : 23.976 fps
    File Info

    File size: 11 GB
    File server: IDWS, 24 parts @ 490 MB

    Show Video


    You must click 'Thank You' before you can see the data contained here.
    You do not have sufficient rights to see the hidden data contained here.

    Joining Guide

    PS : Sblm mendownload film 1080p...
    pastikan terlebih dahulu semua link masih hidup...
    caranya dengan mengecheck 1 persatu link di IDM...
    klo semua link bs didonlod via IDM...
    berarti film bs di join

    All risk is up to leecher

    Join all parts using HJSplit (Win) or MacHacha (Mac)

    Gimana cara gabungin file yg displit pake HJSplit (ext .001, .002, dst)?

    Last edited by inggo; 14-08-2011 at 08:29 PM.
    on the Journey of knowledge
    PhD

  10. Who Said Thanks:

    There are too many to display.

  11. #3619

    Join Date
    Apr 2009
    Location
    Earth
    Posts
    28,536
    Thank(s)
    0/153,149
    Blog Entries
    2
    Rep Power
    46

    Default

    Quote Originally Posted by SkyDewa View Post
    LoTR 2 ny gak bisa dibuka tuh...
    Quote Originally Posted by SkyDewa View Post
    LoTR 2 ny gak bisa dibuka tuh..
    ada solusinya gak?
    http://www.indowebster.web.id/showth...=1#post8538877

    kalo bisa jangan double post ya gunakan fungsi edit, dan jangan quote image

    Quote Originally Posted by GossipBoy View Post
    ga tw yg krng ny apaan nih T.T'
    perasaan da smua 1-9...kejadian sama kayak bruce lee kmren...
    td jg ane test join yg 8 ny ane pisah setelah complate ane test play ane cepetin dia buffering dl trus pas bag akhir ga k play langsung play awal
    beda ma kejadian ane td, td langsung ngelangkah ke akhir dan ttp bs play...
    lg coba dl ulang part 7ma8 ny...moga2 bisa
    kayaknya ada yang miss di download, kalo gak kebalik, coba di tes dulu, soalnya saia download yang bruce lee gak ada masalah
    Last edited by Thinl; 18-02-2011 at 07:11 PM.

  12. #3620

    Join Date
    Apr 2010
    Location
    daratan terbuka
    Posts
    1,619
    Thank(s)
    0/3,165
    Rep Power
    6

    Default

    gw udah download star wars 5...
    waktu extract pake winrar , katanya part 4 corrupt..
    gw redownload part 4. terus coba extract lagi..

    gak ada tulisan part 4 corrupt..
    tp pas da slese tertulis "CRC failed in Star Wars 5 The Empire Strikes Back 1980 m72pp Jon.mkv. The file is corrupt."
    nah itu gmn? biasa kan ada tulis part berapa yang corrupt

Page 362 of 583 FirstFirst ... 262312352358359360361362363364365366372412462 ... LastLast

Bookmarks

Posting Permissions

  • You may not post new threads
  • You may not post replies
  • You may not post attachments
  • You may not edit your posts
  •  
Indowebster is proudly powered by PT. Gudang Data Indonesia