Page 364 of 583 FirstFirst ... 264314354360361362363364365366367368374414464 ... LastLast
Results 3,631 to 3,640 of 5829

Thread: [Archive] HD Collection | Lokal ONLY | I
http://idws.in/18136

  1. #3631

    Join Date
    May 2010
    Location
    Seoul, Korea
    Posts
    532
    Thank(s)
    1/1,284
    Rep Power
    5

    Default

    Quote Originally Posted by AnthraX View Post
    Megamind 2010 720p BluRay x264

    Show SS




    -=DOWNLOAD MAKNYOS=-
    minta dong alamat lokal nya IDWS soalnya ane lage masalah login di maknos gan

  2. Who Said Thanks:


  3. #3632

    Join Date
    Nov 2009
    Location
    ENJUKU
    Posts
    1,131
    Thank(s)
    3/33,366
    Blog Entries
    6
    Rep Power
    8

    Default

    Quote Originally Posted by AnthraX View Post
    Due.Date.REPACK.2010.720p.BluRay.DTS.x264-CROSSBOW
    http://img340.imageshack.us/img340/3163/duedatea.jpg
    ternyata bro Anthrax toh yg upload *di idws.com uploadernya namanya angzz *
    btw, yg versi repack fix paan aj ?? setau ane sh cm fixed audio .. ada yg laen yg yg dibenerin *re-download* ??

  4. Who Said Thanks:


  5. #3633

    Join Date
    Mar 2010
    Location
    was kidnapped..
    Posts
    5,081
    Thank(s)
    0/265,217
    Rep Power
    10

    Default

    Quote Originally Posted by Lavenge View Post
    minta dong alamat lokal nya IDWS soalnya ane lage masalah login di maknos gan
    jangan quote image
    cepetan diedit kalo ga

  6. #3634

    Join Date
    Apr 2009
    Location
    bandung
    Posts
    88
    Thank(s)
    2/3,292
    Rep Power
    0

    Default

    Mau laporan, ane udh donlod how to train your dragon, the girl next door, avatar, time warp, dark knight, inception sama hancock, semuanya lancar jaya gak ada masalah
    skrg lagi donlod dee detective sama the other guys
    thanks to all uploader. keep uploading bro

  7. Who Said Thanks:


  8. #3635

    Join Date
    Apr 2009
    Location
    Earth
    Posts
    28,739
    Thank(s)
    3/155,538
    Blog Entries
    2
    Rep Power
    49

    Default

    Quote Originally Posted by AnthraX View Post
    Due.Date.REPACK.2010.720p.BluRay.DTS.x264-CROSSBOW
    dah kelar di download, no problemo, lancar jaya
    Quote Originally Posted by Lavenge View Post
    minta dong alamat lokal nya IDWS soalnya ane lage masalah login di maknos gan
    nih kalo mau link IDWS : http://www.indowebster.web.id/showth...=1#post8645441
    tapi jangan quote image ya kk, baca judul thread, klo bisa di edit postingannya untuk ilangin gambarnya

  9. Who Said Thanks:


  10. #3636

    Join Date
    Oct 2008
    Location
    jakarta
    Posts
    50
    Thank(s)
    1/5
    Rep Power
    0

    Default

    kk anthrax d update pls list nya >.< biar mantaf. msh bnyk film" yg lom dah d upload blue ray d share tp ga ad d list hehe.thx bgt sblomnya kpd kk anthrax ^^

  11. Who Said Thanks:


  12. #3637

    Join Date
    Apr 2009
    Location
    Earth
    Posts
    28,739
    Thank(s)
    0/155,538
    Blog Entries
    2
    Rep Power
    49

    Default

    Quote Originally Posted by thebroken View Post
    kk anthrax d update pls list nya >.< biar mantaf. msh bnyk film" yg lom dah d upload blue ray d share tp ga ad d list hehe.thx bgt sblomnya kpd kk anthrax ^^
    emang apa yang belum di list? bukannya di pej awal uda lengkap ya? kalo gak PM dia aja list yang belum di update, trus kasih link nya, sapa tau aja dia gak ngerti atau terlewat gitu

  13. #3638

    Join Date
    Jul 2010
    Location
    medan
    Posts
    1
    Thank(s)
    8/8
    Rep Power
    0

    Default

    Quote Originally Posted by AnthraX View Post
    The Wolfman 2010 Unrated BRRip 720p H264-3Li

    Code:
    NAME.....................: The Wolfman (2010)
    GENRE....................: Drama | Horror | Thriller
    RATING...................: 6.1/10     25,961 votes
    http://www.imdb.com/title/tt0780653/
    
    RUNTiME.............: 119 mins
    RELEASE.SiZE........: 2.18 GB
    ViDEO.CODEC.........: MPEG4 Video (H264)
    FRAME.RATE..........: 23.976 kbps
    VIDEO.BITRATE.......: 1860 kbps   
    RESOLUTION..........: 1280 x 688
    AUDIO...............: AAC 48.000 Hz 6CH @ 320 kbps
    SUBTITLE............: RAW
    Show SS AWAS BWK







    DOWNLOAD LINKS @
    *** hidden content ***


    Code:
    download semua file. hapus *.rar kemudian join dengan HJSplit.
    kalo ada file yang gak bisa di download, PM aku za
    mantap filemnya

  14. #3639

    Join Date
    Apr 2009
    Location
    Earth
    Posts
    28,739
    Thank(s)
    331/155,538
    Blog Entries
    2
    Rep Power
    49

    Default

    The.Italian.Job.2003.720p.BluRay.DTS.5.1.x264-CtrlHD

    Show INFO
    Code:
    General
    Format                           : Matroska
    File size                        : 4.38 GiB
    Duration                         : 1h 50mn
    Overall bit rate                 : 5 670 Kbps
    Encoded date                     : UTC 2008-09-30 21:51:30
    Writing application              : mkvmerge v2.3.0 ('Freak U') built on Sep  8 2008 18:32:16
    Writing library                  : libebml v0.7.7 + libmatroska v0.8.1
    
    Video
    ID                               : 1
    Format                           : AVC
    Format/Info                      : Advanced Video Codec
    Format profile                   : High@L4.1
    Format settings, CABAC           : Yes
    Format settings, ReFrames        : 4 frames
    Codec ID                         : V_MPEG4/ISO/AVC
    Duration                         : 1h 50mn
    Bit rate                         : 4 157 Kbps
    Width                            : 1 280 pixels
    Height                           : 536 pixels
    Display aspect ratio             : 2.35:1
    Frame rate                       : 23.976 fps
    Color space                      : YUV
    Chroma subsampling               : 4:2:0
    Bit depth                        : 8 bits
    Scan type                        : Progressive
    Bits/(Pixel*Frame)               : 0.253
    Stream size                      : 3.12 GiB (71%)
    Writing library                  : x264 core 64 r977M 2042a19
    Language                         : English
    
    Audio
    ID                               : 2
    Format                           : DTS
    Format/Info                      : Digital Theater Systems
    Codec ID                         : A_DTS
    Duration                         : 1h 50mn
    Bit rate mode                    : Constant
    Bit rate                         : 1 510 Kbps
    Channel(s)                       : 6 channels
    Channel positions                : Front: L C R, Side: L R, LFE
    Sampling rate                    : 48.0 KHz
    Bit depth                        : 24 bits
    Compression mode                 : Lossy
    Stream size                      : 1.17 GiB (27%)
    Language                         : English
    
    Text #1
    ID                               : 3
    Format                           : UTF-8
    Codec ID                         : S_TEXT/UTF8
    Codec ID/Info                    : UTF-8 Plain Text
    Language                         : French
    
    Text #2
    ID                               : 4
    Format                           : UTF-8
    Codec ID                         : S_TEXT/UTF8
    Codec ID/Info                    : UTF-8 Plain Text
    Language                         : Spanish
    
    Text #3
    ID                               : 5
    Format                           : UTF-8
    Codec ID                         : S_TEXT/UTF8
    Codec ID/Info                    : UTF-8 Plain Text
    Language                         : English
    
    

    Show DOWNLOAD
    You must click 'Thank You' before you can see the data contained here.
    You do not have sufficient rights to see the hidden data contained here.

    Code:
    Download semua file. Hapus .rar dan join dengan HJSplit
    Kalo ada masalah silahkan lapor via PM atau VM
    Cek Checksum pakai exactfile
    

  15. Who Said Thanks:

    There are too many to display.

  16. #3640

    Join Date
    Apr 2009
    Location
    Earth
    Posts
    28,739
    Thank(s)
    148/155,538
    Blog Entries
    2
    Rep Power
    49

    Default

    Home.Alone.1990.1080p.BluRay.x264-HD1080

    Show INFO
    Code:
    General
    Format                           : Matroska
    File size                        : 8.54 GiB
    Duration                         : 1h 42mn
    Overall bit rate                 : 11.9 Mbps
    Encoded date                     : UTC 2009-01-07 05:18:01
    Writing application              : mkvmerge v2.4.1 ('Use Me') built on Dec  5 2008 18:30:05
    Writing library                  : libebml v0.7.7 + libmatroska v0.8.1
    
    Video
    ID                               : 1
    Format                           : AVC
    Format/Info                      : Advanced Video Codec
    Format profile                   : High@L4.1
    Format settings, CABAC           : Yes
    Format settings, ReFrames        : 5 frames
    Codec ID                         : V_MPEG4/ISO/AVC
    Duration                         : 1h 42mn
    Bit rate                         : 9 543 Kbps
    Width                            : 1 920 pixels
    Height                           : 1 040 pixels
    Display aspect ratio             : 16:9
    Frame rate                       : 23.976 fps
    Color space                      : YUV
    Chroma subsampling               : 4:2:0
    Bit depth                        : 8 bits
    Scan type                        : Progressive
    Bits/(Pixel*Frame)               : 0.199
    Stream size                      : 6.69 GiB (78%)
    Writing library                  : x264 core 65 r1061 839cd8c
    Language                         : English
    
    Audio #1
    ID                               : 2
    Format                           : AC-3
    Format/Info                      : Audio Coding 3
    Mode extension                   : CM (complete main)
    Codec ID                         : A_AC3
    Duration                         : 1h 42mn
    Bit rate mode                    : Constant
    Bit rate                         : 384 Kbps
    Channel(s)                       : 6 channels
    Channel positions                : Front: L C R, Side: L R, LFE
    Sampling rate                    : 48.0 KHz
    Bit depth                        : 16 bits
    Compression mode                 : Lossy
    Stream size                      : 283 MiB (3%)
    Language                         : Russian
    
    Audio #2
    ID                               : 3
    Format                           : AC-3
    Format/Info                      : Audio Coding 3
    Mode extension                   : CM (complete main)
    Codec ID                         : A_AC3
    Duration                         : 1h 42mn
    Bit rate mode                    : Constant
    Bit rate                         : 448 Kbps
    Channel(s)                       : 6 channels
    Channel positions                : Front: L C R, Side: L R, LFE
    Sampling rate                    : 48.0 KHz
    Bit depth                        : 16 bits
    Compression mode                 : Lossy
    Delay relative to video          : 24ms
    Stream size                      : 330 MiB (4%)
    Language                         : Russian
    
    Audio #3
    ID                               : 4
    Format                           : DTS
    Format/Info                      : Digital Theater Systems
    Codec ID                         : A_DTS
    Duration                         : 1h 42mn
    Bit rate mode                    : Constant
    Bit rate                         : 1 510 Kbps
    Channel(s)                       : 6 channels
    Channel positions                : Front: L C R, Side: L R, LFE
    Sampling rate                    : 48.0 KHz
    Bit depth                        : 24 bits
    Compression mode                 : Lossy
    Stream size                      : 1.09 GiB (13%)
    Language                         : English
    
    Text
    ID                               : 5
    Format                           : UTF-8
    Codec ID                         : S_TEXT/UTF8
    Codec ID/Info                    : UTF-8 Plain Text
    Language                         : English
    
    

    Show DOWNLOAD
    You must click 'Thank You' before you can see the data contained here.
    You do not have sufficient rights to see the hidden data contained here.

    Code:
    Download semua file. Hapus .rar dan join dengan HJSplit
    Kalo ada masalah silahkan lapor via PM atau VM
    Cek Checksum pakai exactfile
    

  17. Who Said Thanks:

    There are too many to display.

Page 364 of 583 FirstFirst ... 264314354360361362363364365366367368374414464 ... LastLast

Bookmarks

Posting Permissions

  • You may not post new threads
  • You may not post replies
  • You may not post attachments
  • You may not edit your posts
  •  
Indowebster is proudly powered by PT. Gudang Data Indonesia