Page 366 of 583 FirstFirst ... 266316356362363364365366367368369370376416466 ... LastLast
Results 3,651 to 3,660 of 5830

Thread: [Archive] HD Collection | Lokal ONLY | I
http://idws.in/18136

  1. #3651

    Join Date
    Apr 2009
    Location
    Earth
    Posts
    28,463
    Thank(s)
    17/151,762
    Blog Entries
    2
    Rep Power
    43

    Default

    Planet 51 [2009] [720p]

    Show INFO
    Code:
    General
    Format                           : Matroska
    File size                        : 1.80 GiB
    Duration                         : 1h 31mn
    Overall bit rate                 : 2 828 Kbps
    Encoded date                     : UTC 2010-02-24 09:27:18
    Writing application              : mkvmerge v3.1.0 ('Happy up here') built on Jan 19 2010 12:09:24
    Writing library                  : libebml v0.7.9 + libmatroska v0.8.1
    
    Video
    ID                               : 1
    Format                           : AVC
    Format/Info                      : Advanced Video Codec
    Format profile                   : High@L4.1
    Format settings, CABAC           : Yes
    Format settings, ReFrames        : 4 frames
    Codec ID                         : V_MPEG4/ISO/AVC
    Duration                         : 1h 31mn
    Bit rate                         : 2 443 Kbps
    Width                            : 1 280 pixels
    Height                           : 544 pixels
    Display aspect ratio             : 2.35:1
    Frame rate                       : 23.976 fps
    Color space                      : YUV
    Chroma subsampling               : 4:2:0
    Bit depth                        : 8 bits
    Scan type                        : Progressive
    Bits/(Pixel*Frame)               : 0.146
    Stream size                      : 1.52 GiB (84%)
    Writing library                  : x264 core 80 r1376M 3feaec2
    
    Audio
    ID                               : 2
    Format                           : AC-3
    Format/Info                      : Audio Coding 3
    Mode extension                   : CM (complete main)
    Codec ID                         : A_AC3
    Duration                         : 1h 31mn
    Bit rate mode                    : Constant
    Bit rate                         : 384 Kbps
    Channel(s)                       : 6 channels
    Channel positions                : Front: L C R, Side: L R, LFE
    Sampling rate                    : 48.0 KHz
    Bit depth                        : 16 bits
    Compression mode                 : Lossy
    Stream size                      : 250 MiB (14%)
    
    Text
    ID                               : 3
    Format                           : UTF-8
    Codec ID                         : S_TEXT/UTF8
    Codec ID/Info                    : UTF-8 Plain Text
    Language                         : English
    
    Menu
    00:00:00.000                     : en:00:00:00.000
    00:06:46.239                     : en:00:06:46.239
    00:11:59.510                     : en:00:11:59.510
    00:18:10.256                     : en:00:18:10.256
    00:21:23.324                     : en:00:21:23.324
    00:26:07.733                     : en:00:26:07.733
    00:31:02.778                     : en:00:31:02.778
    00:33:43.563                     : en:00:33:43.563
    00:42:59.202                     : en:00:42:59.202
    00:47:48.866                     : en:00:47:48.866
    00:53:15.275                     : en:00:53:15.275
    01:00:46.768                     : en:01:00:46.768
    01:07:15.615                     : en:01:07:15.615
    01:13:01.794                     : en:01:13:01.794
    01:17:19.093                     : en:01:17:19.093
    01:19:50.119                     : en:01:19:50.119
    
    


    DOWNLOAD

  2. #3652

    Join Date
    Apr 2009
    Location
    Earth
    Posts
    28,463
    Thank(s)
    106/151,762
    Blog Entries
    2
    Rep Power
    43

    Default

    Practical Magic (1998) 720p BluRay x264 - CiNEFiLE

    Show INFO
    Code:
    General
    Format                           : Matroska
    File size                        : 4.37 GiB
    Duration                         : 1h 44mn
    Overall bit rate                 : 6 001 Kbps
    Encoded date                     : UTC 2010-06-25 07:03:40
    Writing application              : mkvmerge v4.0.0 ('The Stars were mine') built on Jun  6 2010 16:18:42
    Writing library                  : libebml v1.0.0 + libmatroska v1.0.0
    
    Video
    ID                               : 1
    Format                           : AVC
    Format/Info                      : Advanced Video Codec
    Format profile                   : High@L3.1
    Format settings, CABAC           : Yes
    Format settings, ReFrames        : 5 frames
    Codec ID                         : V_MPEG4/ISO/AVC
    Duration                         : 1h 44mn
    Bit rate                         : 4 495 Kbps
    Width                            : 1 280 pixels
    Height                           : 528 pixels
    Display aspect ratio             : 2.40:1
    Frame rate                       : 23.976 fps
    Color space                      : YUV
    Chroma subsampling               : 4:2:0
    Bit depth                        : 8 bits
    Scan type                        : Progressive
    Bits/(Pixel*Frame)               : 0.277
    Stream size                      : 3.18 GiB (73%)
    Writing library                  : x264 core 98 r1649 c54c47d
    Language                         : English
    
    Audio
    ID                               : 2
    Format                           : DTS
    Format/Info                      : Digital Theater Systems
    Codec ID                         : A_DTS
    Duration                         : 1h 44mn
    Bit rate mode                    : Constant
    Bit rate                         : 1 510 Kbps
    Channel(s)                       : 6 channels
    Channel positions                : Front: L C R, Side: L R, LFE
    Sampling rate                    : 48.0 KHz
    Bit depth                        : 24 bits
    Compression mode                 : Lossy
    Stream size                      : 1.10 GiB (25%)
    
    Text
    ID                               : 3
    Format                           : UTF-8
    Codec ID                         : S_TEXT/UTF8
    Codec ID/Info                    : UTF-8 Plain Text
    Language                         : English
    
    

    Show DOWNLOAD
    You must click 'Thank You' before you can see the data contained here.
    You do not have sufficient rights to see the hidden data contained here.

    Code:
    Download semua file. Hapus .rar dan join dengan HJSplit
    Kalo ada masalah silahkan lapor via PM atau VM
    Cek Checksum pakai exactfile
    

  3. Who Said Thanks:

    There are too many to display.

  4. #3653

    Join Date
    Dec 2009
    Location
    In Your Dream
    Posts
    162
    Thank(s)
    1/2,263
    Rep Power
    0

    Default

    Quote Originally Posted by Thinl View Post
    The Resident 2011 720p BRRip x264-HDLiTE
    bro ini mhd ya? koq filenya kecil gitu?

  5. Who Said Thanks:


  6. #3654

    Join Date
    Apr 2009
    Location
    Earth
    Posts
    28,463
    Thank(s)
    0/151,762
    Blog Entries
    2
    Rep Power
    43

    Default

    Quote Originally Posted by JohnzKay View Post
    bro ini mhd ya? koq filenya kecil gitu?
    dari judulnya kan ketauan bro kalo itu BRRip

  7. #3655

    Join Date
    Dec 2009
    Location
    In Your Dream
    Posts
    162
    Thank(s)
    0/2,263
    Rep Power
    0

    Default

    koq filenya kecil
    kebanyakan kan sekitar 4gb keatas
    Last edited by JohnzKay; 21-02-2011 at 10:39 PM.

  8. #3656

    Join Date
    Apr 2009
    Location
    Earth
    Posts
    28,463
    Thank(s)
    0/151,762
    Blog Entries
    2
    Rep Power
    43

    Default

    Quote Originally Posted by JohnzKay View Post
    koq filenya kecil
    kebanyakan kan sekitar 4gb keatas
    itu kan karena bitratenya sedikit lebih kecil makanya jadi gak memakan banyak space, kayaknya gak cuma itu aja deh upload yang kecil

  9. #3657

    Join Date
    Feb 2010
    Location
    jogja
    Posts
    24,865
    Thank(s)
    0/584,272
    Blog Entries
    5
    Rep Power
    832

    Default

    Quote Originally Posted by JohnzKay View Post
    koq filenya kecil
    kebanyakan kan sekitar 4gb keatas
    kalo yang sizenya kecil begitu mungkin bisa masuk kategori m-HD ato m-720p

  10. #3658

    Join Date
    Apr 2009
    Location
    Earth
    Posts
    28,463
    Thank(s)
    146/151,762
    Blog Entries
    2
    Rep Power
    43

    Default

    Old Dogs (2009) 1080p

    Show INFO
    Code:
    General
    Format                           : Matroska
    File size                        : 6.55 GiB
    Duration                         : 1h 28mn
    Overall bit rate                 : 10.6 Mbps
    Encoded date                     : UTC 2008-02-17 00:17:46
    Writing application              : mkvmerge v2.9.8 ('C'est le bon') built on Aug 21 2009 13:21:42
    Writing library                  : libebml v0.7.7 + libmatroska v0.8.1
    
    Video
    ID                               : 1
    Format                           : AVC
    Format/Info                      : Advanced Video Codec
    Format profile                   : High@L4.0
    Format settings, CABAC           : Yes
    Format settings, ReFrames        : 3 frames
    Codec ID                         : V_MPEG4/ISO/AVC
    Duration                         : 1h 28mn
    Bit rate                         : 9 142 Kbps
    Width                            : 1 920 pixels
    Height                           : 1 040 pixels
    Display aspect ratio             : 16:9
    Frame rate                       : 23.976 fps
    Color space                      : YUV
    Chroma subsampling               : 4:2:0
    Bit depth                        : 8 bits
    Scan type                        : Progressive
    Bits/(Pixel*Frame)               : 0.191
    Stream size                      : 5.49 GiB (84%)
    Writing library                  : x264 core 85 r1442 781d300
    Language                         : English
    
    Audio
    ID                               : 2
    Format                           : DTS
    Format/Info                      : Digital Theater Systems
    Codec ID                         : A_DTS
    Duration                         : 1h 28mn
    Bit rate mode                    : Constant
    Bit rate                         : 1 510 Kbps
    Channel(s)                       : 6 channels
    Channel positions                : Front: L C R, Side: L R, LFE
    Sampling rate                    : 48.0 KHz
    Bit depth                        : 24 bits
    Compression mode                 : Lossy
    Stream size                      : 952 MiB (14%)
    Language                         : English
    
    Text
    ID                               : 3
    Format                           : UTF-8
    Codec ID                         : S_TEXT/UTF8
    Codec ID/Info                    : UTF-8 Plain Text
    Language                         : English
    
    Menu
    00:00:00.000                     : en:00:00:00.000
    00:03:26.164                     : en:00:03:26.164
    00:08:41.938                     : en:00:08:41.938
    00:12:38.007                     : en:00:12:38.007
    00:18:50.755                     : en:00:18:50.755
    00:23:48.260                     : en:00:23:48.260
    00:25:38.537                     : en:00:25:38.537
    00:31:09.117                     : en:00:31:09.117
    00:33:35.722                     : en:00:33:35.722
    00:37:25.368                     : en:00:37:25.368
    00:39:45.466                     : en:00:39:45.466
    00:44:01.264                     : en:00:44:01.264
    00:50:10.007                     : en:00:50:10.007
    00:51:54.194                     : en:00:51:54.194
    00:56:31.805                     : en:00:56:31.805
    01:02:20.153                     : en:01:02:20.153
    01:07:29.128                     : en:01:07:29.128
    01:13:36.912                     : en:01:13:36.912
    01:16:36.717                     : en:01:16:36.717
    01:22:52.885                     : en:01:22:52.885
    
    

    Show DOWNLOAD
    You must click 'Thank You' before you can see the data contained here.
    You do not have sufficient rights to see the hidden data contained here.

    Code:
    Download semua file. Hapus .rar dan join dengan HJSplit
    Kalo ada masalah silahkan lapor via PM atau VM
    Cek Checksum pakai exactfile
    

  11. Who Said Thanks:

    There are too many to display.

  12. #3659

    Join Date
    Jul 2009
    Location
    Indonesia
    Posts
    26
    Thank(s)
    3/23
    Rep Power
    0

    Default

    Quote Originally Posted by ggopar View Post
    Fantastic.Four.Rise.of.the.Silver.Surfer.2007.1080 p.BluRay.DTS.x264-hV

    Apakah ada yang sukses Join , link download berikut :

    Uploaded: masquarade
    http://www.indowebster.com/Fantastic...t01rar__1.html Uploaded: papakodok
    Fantastic.Four.Rise.of.the.Silver.Surfer.2007.1080 p.BluRay.DTS.x264-hV.part01.rar Reupload. Credit to Masquerade the original uploader
    http://www.indowebster.com/Fantastic...part02rar.html
    http://www.indowebster.com/Fantastic...part03rar.html
    http://www.indowebster.com/Fantastic...part04rar.html
    http://www.indowebster.com/Fantastic...part05rar.html
    http://www.indowebster.com/Fantastic...part06rar.html
    http://www.indowebster.com/Fantastic...part07rar.html
    http://www.indowebster.com/Fantastic...part08rar.html
    http://www.indowebster.com/Fantastic...part09rar.html

    Waktu extract pakai winrar ,error pada part2.


    yup ternyata error "file is broken", dah pake 7zip hasilnya sama... ada yg bisa bantu?
    Last edited by cipit; 22-02-2011 at 04:42 AM.

  13. Who Said Thanks:


  14. #3660

    Join Date
    Apr 2009
    Location
    Earth
    Posts
    28,463
    Thank(s)
    0/151,762
    Blog Entries
    2
    Rep Power
    43

    Default

    Quote Originally Posted by cipit View Post
    bentar bro, ane lg donlod... sekalian di cek neh...
    Quote Originally Posted by cipit View Post
    lanjut yg kedua gan...
    tolong postingannya jangan kayak gini ya, uda termasuk kategori junk post, siap2 kena razia

Page 366 of 583 FirstFirst ... 266316356362363364365366367368369370376416466 ... LastLast

Bookmarks

Posting Permissions

  • You may not post new threads
  • You may not post replies
  • You may not post attachments
  • You may not edit your posts
  •  
Indowebster is proudly powered by PT. Gudang Data Indonesia