Page 396 of 583 FirstFirst ... 296346386392393394395396397398399400406446496 ... LastLast
Results 3,951 to 3,960 of 5830

Thread: [Archive] HD Collection | Lokal ONLY | I
http://idws.in/18136

  1. #3951

    Join Date
    May 2008
    Location
    J.a.k.a.r.t.a
    Posts
    21,717
    Thank(s)
    344/159,745
    Blog Entries
    8
    Rep Power
    27

    Default

    Star Trek 1080p (2009)

    IMDB 8.1/10

    Video Info

    Code:
    General
    Complete name                    : Star.Trek.1080p.2009.mkv
    Format                           : Matroska
    File size                        : 13 GiB
    Duration                         : 2h 26mn
    Overall bit rate                 : 12.3 Mbps
    Writing application              : x264.exe
    Writing library                  : mkv2rls v1.3 (date: 2010 aug 28)
    
    Video
    ID                               : 1
    Format                           : AVC
    Format/Info                      : Advanced Video Codec
    Format profile                   : High@L4.1
    Format settings, CABAC           : Yes
    Format settings, ReFrames        : 4 frames
    Format settings, GOP             : M=4, N=16
    Codec ID                         : V_MPEG4/ISO/AVC
    Duration                         : 2h 58mn
    Bit rate                         : 10.8 Mbps
    Width                            : 1 920 pixels
    Height                           :   800 pixels
    Display aspect ratio             : 16:9
    Frame rate                       : 23.976 fps
    Color space                      : YUV
    Chroma subsampling               : 4:2:0
    Bit depth                        : 8 bits
    Scan type                        : Progressive
    Bits/(Pixel*Frame)               : 0.217
    Stream size                      : 13.1 GiB (86%)
    File Info

    File size: 13 GB
    File server: IDWS, 28 parts @ 490 MB

    Show Video


    Show Test via IDM


    You must click 'Thank You' before you can see the data contained here.
    You do not have sufficient rights to see the hidden data contained here.

    Joining Guide

    PS : Sblm mendownload film 1080p...
    pastikan terlebih dahulu semua link masih hidup...
    caranya dengan mengecheck 1 persatu link di IDM...
    klo semua link bs didonlod via IDM...
    berarti film bs di join

    All risk is up to leecher

    Join all parts using HJSplit (Win) or MacHacha (Mac)

    Gimana cara gabungin file yg displit pake HJSplit (ext .001, .002, dst)?

    Last edited by inggo; 14-08-2011 at 08:34 PM.
    on the Journey of knowledge
    PhD

  2. Who Said Thanks:

    There are too many to display.

  3. #3952

    Join Date
    Apr 2009
    Location
    Jakarta
    Posts
    67
    Thank(s)
    4/110
    Rep Power
    0

    Default

    @Nattacker : BIG thanks buat Pirate Of Caribbeannya , moga2 berlanjut smape ke 3

  4. Who Said Thanks:


  5. #3953

    Join Date
    Oct 2009
    Location
    Jakarta
    Posts
    352
    Thank(s)
    3/23,560
    Rep Power
    0

    Default

    @ESata, part 1 ama part 3 udah di upload. halaman 401 ama 402. ini lagi upload part 2 .. ngk urutan ya .. yg penting bisa di download :)

  6. Who Said Thanks:


  7. #3954

    Join Date
    Oct 2009
    Location
    Jakarta
    Posts
    352
    Thank(s)
    438/23,560
    Rep Power
    0

    Default Pirates of the Caribbean Dead Mans Chest [2006][DVD9][BluRay][x264][REVEiLLE]

    Pirates of the Caribbean Dead Mans Chest [2006][DVD9][720p][BluRay][x264][REVEiLLE]


    By nattacker at 2011-03-18

    Code:
                                          
    
    -----------------------
    ---Movie Information---
    -----------------------
    
    title       : Pirates of the Caribbean: Dead Man's Chest
    
    runtime     : 150 minutes
    
    street date : May 22, 2007
    
    year        : 2006
    
    
    ----------------------
    ---IMDB Information---
    ----------------------
    
    link    : http://www.imdb.com/title/tt0383574/
    
    rating  : 7.4
    
    votes   : 72,787
    
    
    ------------------------
    ---Source Information---
    ------------------------
    
    format       : BluRay
    
    resolution   : 1080p
    
    video codec  : MPEG-4 AVC
    
    aspect ratio : 2.40:1
    
    
    -----------------------
    ---Video Information---
    -----------------------
    
    container  : mkv
    
    codec      : x264
    
    bitrate    : 6906 kbps
    
    resolution : 720p
    
    frames/sec : 23.976
    
    
    -----------------------
    ---Audio Information---
    -----------------------
    
    codec     : AC3 5.1
    
    bitrate   : 640 kpbs
    
    subtitles : None
    
    
    -------------------
    ---Release Notes---
    -------------------
    
    Enjoy the film!

    You must click 'Thank You' before you can see the data contained here.
    You do not have sufficient rights to see the hidden data contained here.





    Code:
    Download semua file, hapus extension .rar nya. Lalu join semua part2 nya pake hjsplit ato FFSJ
    Last edited by Nattacker; 19-03-2011 at 09:48 AM.

  8. Who Said Thanks:

    There are too many to display.

  9. #3955

    Join Date
    Jul 2009
    Location
    jakarta
    Posts
    70
    Thank(s)
    1/5
    Rep Power
    0

    Default

    gan,kan musti di join tuh file nya.jadi,formatnya harus .001,dll.tapi gw lupa ganti dan msih tetep rar jadinya.dari rar bisa di ganti gak formatnya jadi .001,dll?

  10. Who Said Thanks:


  11. #3956

    Join Date
    Nov 2009
    Location
    ENJUKU
    Posts
    1,131
    Thank(s)
    1/33,201
    Blog Entries
    6
    Rep Power
    7

    Default

    Quote Originally Posted by kurosakihansel View Post
    gan,kan musti di join tuh file nya.jadi,formatnya harus .001,dll.tapi gw lupa ganti dan msih tetep rar jadinya.dari rar bisa di ganti gak formatnya jadi .001,dll?
    ya emang hrs diganti formatnya ..
    emang g keliatan nama format file-nya klo belon dimunculin ..
    klo pke xp klo g sala tools (klo seven "organize")--> folder options. pilih tab "view" trus un-check yg "hide extension for known file types". klik OK.
    ntar pas keliatan br rename formatnya. (judul film.avi/mkv.001, dst)

  12. Who Said Thanks:


  13. #3957

    Join Date
    May 2009
    Location
    idws
    Posts
    639
    Thank(s)
    265/86,010
    Rep Power
    6

    Default

    Fair Game (2010) LiMiTED 720p BluRay



    Code:
    Fair Game LiMiTED
    
    SIZE: 5.46 GB
    RUNTIME: 108 min
    GENRE: Biography | Drama | Thriller
    CODEC: x264
    RESOLUTION: 1280x536
    FRAME_RATE: 23.976 fps
    imdb: http://www.imdb.com/title/tt0977855/
    Rating: 7.0/10
    Show SS




    You must click 'Thank You' before you can see the data contained here.
    You do not have sufficient rights to see the hidden data contained here.


    Akhirnya..postingan pertama gw utk koleksi HD
    Mau dong ditraktir cendolnya

    Show BONUS

    Utk Pecinta/Guru Matematika = SchoolHouse Math Resource Studio [Maknyos|MF]
    Utk Pengguna Setia WinXP = Yamicsoft WinXP Manager Latest Version [Maknyos|MF]
    Suka Koleksi Film??? Pake eXtreme Movie Manager Latest Version [Maknyos | MF]
    Kembalikan Data Hilang via Network??? Pake Restorer Ultimate Pro Network [Maknyos|MF]
    Mudahnya Membuat Icon Cantik dg Axialis IconWorkShop Latest Version [MF]
    NetBook Lambat??? Gunakan SysTweak Netbook Optimizer latest Version [Maknyos | MF]
    All-in-one media player = ArcSoft TotalMedia Theatre Platinum [Maknyos|MF]
    Remote Manager Super Canggih = NetSupport Manager last Version [MAKNYOS]
    Buat Lembar Soal&Jawaban/ujian/kuisioner Dg Schoolhouse Test 3.1.3.1[Maknyos]
    System Utilities TERLENGKAP = Spotmau PowerSuite | MAKNYOS
    Best of Video Converter 2011(All FULL) + Comparison[MAKNYOS]
    Best of System Utilities 2011 = Advanced System Utilities 3.1.6 + Comparison[MAKNYOS]
    Best Of MP3 Player 2011 = MediaMonkey Gold+Comparison[MAKNYOS]
    Best of Audio Converter 2011(All FULL)+Comparison[MAKNYOS]
    Best of Video Editing 2011 = CyberLink PowerDirector Ultra64 Latest Version[MAKNYOS]
    Spyware Doctor with AntiVirus 2011 v8.0.0.623 + Serial [MAKNYOS]
    Animasikan Wajah Anda dg FantaMorph 4.2.6 Deluxe[MAKNYOS]
    Aplikasi Monitor Log dan Disk di Network untuk System Administrator[Maknyos]
    Webroot Antivirus With Spysweeper 2011 7.0.4 + Serial For 2043 Days[MAKNYOS]
    WebCam biasa bs jadi Sistem Pengawasan dg Motion dan Sound detection[MAKNYOS]
    3D-Doctor 4.0.20101105

  14. Who Said Thanks:

    There are too many to display.

  15. #3958

    Join Date
    May 2008
    Location
    J.a.k.a.r.t.a
    Posts
    21,717
    Thank(s)
    234/159,745
    Blog Entries
    8
    Rep Power
    27

    Default

    Fight Club 1080p (1999)

    IMDB 8.8/10

    Video Info

    Code:
    Complete name                    : Fight.Club.1080p.1999.mkv
    Format                           : Matroska
    File size                        : 13.5 GiB
    Duration                         : 2h 19mn
    Overall bit rate                 : 13.9 Mbps
    Encoded date                     : UTC 2008-12-24 16:32:02
    Writing application              : mkvmerge v2.4.0 ('Fumbling Towards Ecstasy') built on Oct 11 2008 20:13:15
    Writing library                  : libebml v0.7.7 + libmatroska v0.8.1
    
    Video
    ID                               : 1
    Format                           : AVC
    Format/Info                      : Advanced Video Codec
    Format profile                   : High@L4.1
    Format settings, CABAC           : Yes
    Format settings, ReFrames        : 4 frames
    Codec ID                         : V_MPEG4/ISO/AVC
    Duration                         : 2h 19mn
    Bit rate                         : 12.1 Mbps
    Width                            : 1 920 pixels
    Height                           : 802 pixels
    Display aspect ratio             : 2.35:1
    Frame rate                       : 23.976 fps
    Color space                      : YUV
    Chroma subsampling               : 4:2:0
    Bit depth                        : 8 bits
    Scan type                        : Progressive
    Bits/(Pixel*Frame)               : 0.327
    Stream size                      : 11.7 GiB (87%)
    Title                            : EuReKA's Fight Club crf encode 1080p@12,3 Mbps
    Writing library                  : x264 core 65 r1057M 5f8a149
    File Info

    File size: 13 GB
    File server: IDWS, 29 parts @ 490 MB

    Show Video


    Show Test via IDM


    You must click 'Thank You' before you can see the data contained here.
    You do not have sufficient rights to see the hidden data contained here.

    Joining Guide

    PS : Sblm mendownload film 1080p...
    pastikan terlebih dahulu semua link masih hidup...
    caranya dengan mengecheck 1 persatu link di IDM...
    klo semua link bs didonlod via IDM...
    berarti film bs di join

    All risk is up to leecher

    Join all parts using HJSplit (Win) or MacHacha (Mac)

    Gimana cara gabungin file yg displit pake HJSplit (ext .001, .002, dst)?

    Last edited by inggo; 14-08-2011 at 08:28 PM.
    on the Journey of knowledge
    PhD

  16. Who Said Thanks:

    There are too many to display.

  17. #3959

    Join Date
    May 2008
    Location
    J.a.k.a.r.t.a
    Posts
    21,717
    Thank(s)
    230/159,745
    Blog Entries
    8
    Rep Power
    27

    Default

    Predator 1080p (2010)

    IMDB 6.5/10

    Video Info

    Code:
    General
    Complete name                    : Predators.1080p.2010.mkv
    Format                           : Matroska
    File size                        : 7.95 GiB
    Duration                         : 1h 46mn
    Overall bit rate                 : 10.6 Mbps
    Encoded date                     : UTC 2010-09-19 07:36:55
    Writing application              : mkvmerge v3.2.0 ('Beginnings') built on Feb 12 2010 16:46:17
    Writing library                  : libebml v0.7.9 + libmatroska v0.8.1
    
    Video
    ID                               : 1
    Format                           : AVC
    Format/Info                      : Advanced Video Codec
    Format profile                   : High@L4.1
    Format settings, CABAC           : Yes
    Format settings, ReFrames        : 5 frames
    Codec ID                         : V_MPEG4/ISO/AVC
    Duration                         : 1h 46mn
    Bit rate                         : 9 133 Kbps
    Width                            : 1 920 pixels
    Height                           : 816 pixels
    Display aspect ratio             : 2.35:1
    Frame rate                       : 23.976 fps
    Color space                      : YUV
    Chroma subsampling               : 4:2:0
    Bit depth                        : 8 bits
    Scan type                        : Progressive
    Bits/(Pixel*Frame)               : 0.243
    Stream size                      : 6.66 GiB (84%)
    File Info

    File size: 7.95 GB
    File server: IDWS, 17 parts @ 490 MB

    Show Test via IDM


    You must click 'Thank You' before you can see the data contained here.
    You do not have sufficient rights to see the hidden data contained here.

    Joining Guide

    PS : Sblm mendownload film 1080p...
    pastikan terlebih dahulu semua link masih hidup...
    caranya dengan mengecheck 1 persatu link di IDM...
    klo semua link bs didonlod via IDM...
    berarti film bs di join

    All risk is up to leecher

    Join all parts using HJSplit (Win) or MacHacha (Mac)

    Gimana cara gabungin file yg displit pake HJSplit (ext .001, .002, dst)?

    Last edited by inggo; 14-08-2011 at 08:31 PM.
    on the Journey of knowledge
    PhD

  18. Who Said Thanks:

    There are too many to display.

  19. #3960

    Join Date
    May 2008
    Location
    J.a.k.a.r.t.a
    Posts
    21,717
    Thank(s)
    30/159,745
    Blog Entries
    8
    Rep Power
    27

    Default

    Monsters, Inc. 1080p (2001)

    IMDB 8.0/10

    Video Info

    Code:
    Complete name                    : Monsters.Inc.1080p.mkv
    Format                           : Matroska
    File size                        : 4.45 GiB
    Duration                         : 1h 22mn
    Overall bit rate                 : 13.9 Mbps
    Encoded date                     : UTC 2008-12-24 16:32:02
    Writing application              : mkvmerge v2.4.0 ('Fumbling Towards Ecstasy') built on Oct 11 2008 20:13:15
    Writing library                  : libebml v0.7.7 + libmatroska v0.8.1
    
    Video
    ID                               : 1
    Format                           : AVC
    Format/Info                      : Advanced Video Codec
    Format profile                   : High@L4.1
    Format settings, CABAC           : Yes
    Format settings, ReFrames        : 4 frames
    Codec ID                         : V_MPEG4/ISO/AVC
    Duration                         : 2h 19mn
    Bit rate                         : 12.1 Mbps
    Width                            : 1 920 pixels
    Height                           : 1040 pixels
    Display aspect ratio             : 2.35:1
    Frame rate                       : 23.976 fps
    Color space                      : YUV
    Chroma subsampling               : 4:2:0
    Bit depth                        : 8 bits
    Scan type                        : Progressive
    Bits/(Pixel*Frame)               : 0.327
    Stream size                      : 11.7 GiB (87%)
    Title                            : EuReKA's Fight Club crf encode 1080p@12,3 Mbps
    Writing library                  : x264 core 65 r1057M 5f8a149
    File Info

    File size: 4.45 GB
    File server: IDWS, 10 parts @ 490 MB

    Show skrinsut




    Joining Guide

    Join all parts using HJSplit (Win) or MacHacha (Mac)
    on the Journey of knowledge
    PhD

Page 396 of 583 FirstFirst ... 296346386392393394395396397398399400406446496 ... LastLast

Bookmarks

Posting Permissions

  • You may not post new threads
  • You may not post replies
  • You may not post attachments
  • You may not edit your posts
  •  
Indowebster is proudly powered by PT. Gudang Data Indonesia