Page 397 of 583 FirstFirst ... 297347387393394395396397398399400401407447497 ... LastLast
Results 3,961 to 3,970 of 5830

Thread: [Archive] HD Collection | Lokal ONLY | I
http://idws.in/18136

  1. #3961

    Join Date
    Jul 2009
    Location
    Indonesia
    Posts
    26
    Thank(s)
    3/23
    Rep Power
    0

    Default

    laporan...
    Shinjuku Incident | 2009 | 14.2Gb by Thinl
    The Girl next Door Unrated | 2004 | 1.62Gb
    50 First Dates | 2004 | 8.1Gb by inggo
    Avatar EXTENDED | 2009 | 15.3Gb by inggo
    Salt Director's Cut | 2010 | 8.74Gb by inggo
    Monster, Inc. | 2001 | 4.45Gb by inggo

    download ga da masalah... thnx for uploader...

  2. Who Said Thanks:


  3. #3962

    Join Date
    May 2009
    Location
    idws
    Posts
    639
    Thank(s)
    586/85,322
    Rep Power
    6

    Default

    Season Of The Witch (2011) 1080p Bluray


    Code:
    Season.Of.The.Witch.2011.1080p.Bluray.RC.DTS.x264-TiMPE       
                                                                                                                       
    RUNTiME........ 1h 34m   
    ViDEO CODEC.... x264                                                                       
    ViDEO BiTRATE.. 8404 kbps avg
    RESOLUTiON..... 1920 x 1080
    FRAMERATE...... 23.976
    SETTiNGS....... DXVA Compliant
    AUDiO CODEC.... DTS 6 chnls
    AUDiO BiTRATE.. 1510 kbps
    FiLE SiZE...... 6.55 GB
    ENCODER........ Quiker
    imdb......http://www.imdb.com/title/tt0479997/
    You must click 'Thank You' before you can see the data contained here.
    You do not have sufficient rights to see the hidden data contained here.


    You must click 'Thank You' before you can see the data contained here.
    You do not have sufficient rights to see the hidden data contained here.


    Enjoy...

    Show BONUS

    Suka Koleksi Film??? Pake eXtreme Movie Manager Latest Version [Maknyos | MF]
    Best of Video Converter 2011(All FULL) + Comparison[MAKNYOS]
    Best of Video Editing 2011 = CyberLink PowerDirector Ultra64 Latest Version[MAKNYOS]
    All-in-one media player = ArcSoft TotalMedia Theatre Platinum [Maknyos|MF]
    Utk Pecinta/Guru Matematika = SchoolHouse Math Resource Studio [Maknyos|MF]
    Utk Pengguna Setia WinXP = Yamicsoft WinXP Manager Latest Version [Maknyos|MF]
    Kembalikan Data Hilang via Network??? Pake Restorer Ultimate Pro Network [Maknyos|MF]
    Mudahnya Membuat Icon Cantik dg Axialis IconWorkShop Latest Version [MF]
    NetBook Lambat??? Gunakan SysTweak Netbook Optimizer latest Version [Maknyos | MF]
    Remote Manager Super Canggih = NetSupport Manager last Version [MAKNYOS]
    Buat Lembar Soal&Jawaban/ujian/kuisioner Dg Schoolhouse Test 3.1.3.1[Maknyos]
    System Utilities TERLENGKAP = Spotmau PowerSuite | MAKNYOS
    Best of System Utilities 2011 = Advanced System Utilities 3.1.6 + Comparison[MAKNYOS]
    Best Of MP3 Player 2011 = MediaMonkey Gold+Comparison[MAKNYOS]
    Best of Audio Converter 2011(All FULL)+Comparison[MAKNYOS]
    Spyware Doctor with AntiVirus 2011 v8.0.0.623 + Serial [MAKNYOS]
    Animasikan Wajah Anda dg FantaMorph 4.2.6 Deluxe[MAKNYOS]
    Aplikasi Monitor Log dan Disk di Network untuk System Administrator[Maknyos]
    Webroot Antivirus With Spysweeper 2011 7.0.4 + Serial For 2043 Days[MAKNYOS]
    WebCam biasa bs jadi Sistem Pengawasan dg Motion dan Sound detection[MAKNYOS]
    3D-Doctor 4.0.20101105
    Last edited by smarty; 10-04-2011 at 07:18 AM.

  4. Who Said Thanks:

    There are too many to display.

  5. #3963

    Join Date
    May 2009
    Location
    idws
    Posts
    639
    Thank(s)
    536/85,322
    Rep Power
    6

    Default

    Black Swan (2010) 1080p BluRay


    Code:
    Black Swan (2010) 1080p BluRay x264
    
    Original title: Black Swan
    Ganre: Drama | Mystery | Thriller
    Duration: 108 min
    Size: 7.93 GB
    imdb: http://www.imdb.com/title/tt0947798/
    Rating: 8.5/10
    You must click 'Thank You' before you can see the data contained here.
    You do not have sufficient rights to see the hidden data contained here.


    You must click 'Thank You' before you can see the data contained here.
    You do not have sufficient rights to see the hidden data contained here.


    Enjoy...

    Show BONUS

    Suka Koleksi Film??? Pake eXtreme Movie Manager Latest Version [Maknyos | MF]
    Best of Video Converter 2011(All FULL) + Comparison[MAKNYOS]
    Best of Video Editing 2011 = CyberLink PowerDirector Ultra64 Latest Version[MAKNYOS]
    All-in-one media player = ArcSoft TotalMedia Theatre Platinum [Maknyos|MF]
    Utk Pecinta/Guru Matematika = SchoolHouse Math Resource Studio [Maknyos|MF]
    Utk Pengguna Setia WinXP = Yamicsoft WinXP Manager Latest Version [Maknyos|MF]
    Kembalikan Data Hilang via Network??? Pake Restorer Ultimate Pro Network [Maknyos|MF]
    Mudahnya Membuat Icon Cantik dg Axialis IconWorkShop Latest Version [MF]
    NetBook Lambat??? Gunakan SysTweak Netbook Optimizer latest Version [Maknyos | MF]
    Remote Manager Super Canggih = NetSupport Manager last Version [MAKNYOS]
    Buat Lembar Soal&Jawaban/ujian/kuisioner Dg Schoolhouse Test 3.1.3.1[Maknyos]
    System Utilities TERLENGKAP = Spotmau PowerSuite | MAKNYOS
    Best of System Utilities 2011 = Advanced System Utilities 3.1.6 + Comparison[MAKNYOS]
    Best Of MP3 Player 2011 = MediaMonkey Gold+Comparison[MAKNYOS]
    Best of Audio Converter 2011(All FULL)+Comparison[MAKNYOS]
    Spyware Doctor with AntiVirus 2011 v8.0.0.623 + Serial [MAKNYOS]
    Animasikan Wajah Anda dg FantaMorph 4.2.6 Deluxe[MAKNYOS]
    Aplikasi Monitor Log dan Disk di Network untuk System Administrator[Maknyos]
    Webroot Antivirus With Spysweeper 2011 7.0.4 + Serial For 2043 Days[MAKNYOS]
    WebCam biasa bs jadi Sistem Pengawasan dg Motion dan Sound detection[MAKNYOS]
    3D-Doctor 4.0.20101105
    Last edited by smarty; 09-04-2011 at 11:30 AM.

  6. Who Said Thanks:

    There are too many to display.

  7. #3964

    Join Date
    Nov 2009
    Location
    Semarang
    Posts
    10,188
    Thank(s)
    3/33,466
    Rep Power
    17

    Default

    Barusan DL + nonton Avatar : James Cameron's nya Inggo
    gak sia" DL 15GB Memang pantas bgt jadi pemenang Oscar di tahun 2009 (atau 2010 kalau salah
    Gak bayangin DL 15GB itu aj aq sekitar 1.5 hari laptop gak mati, upload nya kayak apa ya itu
    GRP sent dah

  8. Who Said Thanks:


  9. #3965

    Join Date
    May 2008
    Location
    J.a.k.a.r.t.a
    Posts
    21,723
    Thank(s)
    5/157,969
    Blog Entries
    8
    Rep Power
    27

    Default

    ^ upload-nya 2x...

    1 kali proses 15 GB selesai... tp waktu itu idws... errot server...

    terpaksa UL ulang...

    akhirnya delete 15 GB dr UCP... trus uplod lagi 15 GB...

    but at least... worthed...
    on the Journey of knowledge
    PhD

  10. Who Said Thanks:


  11. #3966

    Join Date
    Nov 2009
    Location
    ENJUKU
    Posts
    1,131
    Thank(s)
    3/32,898
    Blog Entries
    6
    Rep Power
    7

    Default

    juno 1080p upload-an bang inggo juga mantap .. *dah donlod dan seleai d join dgn selamat sentosa*

    dual language-nya juga keren *sayang g ad bahasa indo *

    kueren lah ..

    sama yg "Other Guy" upload-an bro anthrax juga selamat sampe d kompi ane

    and makin makmur aj nh trit .. makin banyak uploader *ane juga lagi proses upload ... just wait for me *

  12. Who Said Thanks:


  13. #3967

    Join Date
    Apr 2009
    Location
    Earth
    Posts
    28,513
    Thank(s)
    392/152,412
    Blog Entries
    2
    Rep Power
    45

    Default

    The Transporter 1 [2002] [1080p]

    Show INFO
    Code:
    General
    Format                           : Matroska
    File size                        : 7.80 GiB
    Duration                         : 1h 32mn
    Overall bit rate                 : 12.1 Mbps
    Movie name                       : -=HANSMER=-
    Encoded date                     : UTC 2008-07-10 21:50:24
    Writing application              : mkvmerge v2.2.0 ('Turn It On Again') built on Mar  4 2008 12:58:26
    Writing library                  : libebml v0.7.7 + libmatroska v0.8.1
    Cover                            : Yes / Yes / Yes
    
    Video
    ID                               : 1
    Format                           : AVC
    Format/Info                      : Advanced Video Codec
    Format profile                   : High@L5.1
    Format settings, CABAC           : Yes
    Format settings, ReFrames        : 8 frames
    Format settings, GOP             : M=1, N=2
    Codec ID                         : V_MPEG4/ISO/AVC
    Duration                         : 1h 32mn
    Bit rate                         : 10.6 Mbps
    Width                            : 1 920 pixels
    Height                           : 816 pixels
    Display aspect ratio             : 2.35:1
    Frame rate                       : 23.976 fps
    Color space                      : YUV
    Chroma subsampling               : 4:2:0
    Bit depth                        : 8 bits
    Scan type                        : Progressive
    Bits/(Pixel*Frame)               : 0.282
    Stream size                      : 6.67 GiB (86%)
    Title                            : The.Transporter.2002.1080p.BluRay.DTS.x264-ESiR
    Writing library                  : x264 core 55 svn-661C
    Language                         : English
    
    Audio
    ID                               : 2
    Format                           : DTS
    Format/Info                      : Digital Theater Systems
    Codec ID                         : A_DTS
    Duration                         : 1h 32mn
    Bit rate mode                    : Constant
    Bit rate                         : 1 510 Kbps
    Channel(s)                       : 6 channels
    Channel positions                : Front: L C R, Side: L R, LFE
    Sampling rate                    : 48.0 KHz
    Bit depth                        : 24 bits
    Compression mode                 : Lossy
    Stream size                      : 995 MiB (12%)
    Language                         : English
    
    Text
    ID                               : 3
    Format                           : UTF-8
    Codec ID                         : S_TEXT/UTF8
    Codec ID/Info                    : UTF-8 Plain Text
    
    


    Show DOWNLOAD
    You must click 'Thank You' before you can see the data contained here.
    You do not have sufficient rights to see the hidden data contained here.

    Code:
    Download semua file. Hapus .RAR kemudian join dengan HJSplit
    Untuk tanya masalah server IDWS silahkan ke SINI
    Kalo ada masalah silahkan lapor via PM atau VM
    Cek Checksum pakai exactfile
    
    Last edited by Thinl; 12-08-2011 at 12:40 AM.

  14. Who Said Thanks:

    There are too many to display.

  15. #3968

    Join Date
    Apr 2009
    Location
    Earth
    Posts
    28,513
    Thank(s)
    337/152,412
    Blog Entries
    2
    Rep Power
    45

    Default

    The Transporter 2 [2005] [720p]

    Show INFO
    Code:
    General
    Format                           : Matroska
    File size                        : 4.34 GiB
    Duration                         : 1h 27mn
    Overall bit rate                 : 7 094 Kbps
    Encoded date                     : UTC 2007-07-03 14:41:20
    Writing application              : mkvmerge v2.0.2 ('You're My Flame') built on Feb 21 2007 23:40:55
    Writing library                  : libebml v0.7.7 + libmatroska v0.8.1
    
    Video
    ID                               : 1
    Format                           : AVC
    Format/Info                      : Advanced Video Codec
    Format profile                   : Main@L5.1
    Format settings, CABAC           : Yes
    Format settings, ReFrames        : 8 frames
    Codec ID                         : V_MPEG4/ISO/AVC
    Duration                         : 1h 27mn
    Bit rate                         : 6 700 Kbps
    Width                            : 1 280 pixels
    Height                           : 544 pixels
    Display aspect ratio             : 2.35:1
    Frame rate                       : 23.976 fps
    Color space                      : YUV
    Chroma subsampling               : 4:2:0
    Bit depth                        : 8 bits
    Scan type                        : Progressive
    Bits/(Pixel*Frame)               : 0.401
    Stream size                      : 3.98 GiB (92%)
    Writing library                  : x264 core 55 svn-656
    Language                         : English
    
    Audio
    ID                               : 2
    Format                           : AC-3
    Format/Info                      : Audio Coding 3
    Mode extension                   : CM (complete main)
    Codec ID                         : A_AC3
    Duration                         : 1h 27mn
    Bit rate mode                    : Constant
    Bit rate                         : 448 Kbps
    Channel(s)                       : 6 channels
    Channel positions                : Front: L C R, Side: L R, LFE
    Sampling rate                    : 48.0 KHz
    Bit depth                        : 16 bits
    Compression mode                 : Lossy
    Stream size                      : 281 MiB (6%)
    
    

    Show DOWNLOAD
    You must click 'Thank You' before you can see the data contained here.
    You do not have sufficient rights to see the hidden data contained here.

    Code:
    Download semua file. Hapus .RAR kemudian join dengan HJSplit
    Untuk tanya masalah server IDWS silahkan ke SINI
    Kalo ada masalah silahkan lapor via PM atau VM
    Cek Checksum pakai exactfile
    
    Last edited by Thinl; 21-03-2011 at 03:41 AM.

  16. Who Said Thanks:

    There are too many to display.

  17. #3969

    Join Date
    Apr 2009
    Location
    Earth
    Posts
    28,513
    Thank(s)
    607/152,412
    Blog Entries
    2
    Rep Power
    45

    Default

    The Transporter 3 [2008] [720p]

    Show INFO
    Code:
    General
    Format                           : Matroska
    File size                        : 2.15 GiB
    Duration                         : 1h 43mn
    Overall bit rate                 : 2 956 Kbps
    Encoded date                     : UTC 2009-02-25 19:12:56
    Writing application              : mkvmerge v2.4.2 ('Oh My God') built on Jan 18 2009 17:30:28
    Writing library                  : libebml v0.7.7 + libmatroska v0.8.1
    
    Video
    ID                               : 1
    Format                           : AVC
    Format/Info                      : Advanced Video Codec
    Format profile                   : High@L3.1
    Format settings, CABAC           : Yes
    Format settings, ReFrames        : 5 frames
    Codec ID                         : V_MPEG4/ISO/AVC
    Duration                         : 1h 43mn
    Bit rate                         : 2 505 Kbps
    Width                            : 1 280 pixels
    Height                           : 544 pixels
    Display aspect ratio             : 2.35:1
    Frame rate                       : 23.976 fps
    Color space                      : YUV
    Chroma subsampling               : 4:2:0
    Bit depth                        : 8 bits
    Scan type                        : Progressive
    Bits/(Pixel*Frame)               : 0.150
    Stream size                      : 1.78 GiB (83%)
    Writing library                  : x264 core 66 r1114M a933a3e
    Language                         : English
    
    Audio
    ID                               : 2
    Format                           : AC-3
    Format/Info                      : Audio Coding 3
    Mode extension                   : CM (complete main)
    Codec ID                         : A_AC3
    Duration                         : 1h 43mn
    Bit rate mode                    : Constant
    Bit rate                         : 448 Kbps
    Channel(s)                       : 6 channels
    Channel positions                : Front: L C R, Side: L R, LFE
    Sampling rate                    : 48.0 KHz
    Bit depth                        : 16 bits
    Compression mode                 : Lossy
    Stream size                      : 333 MiB (15%)
    
    Text
    ID                               : 3
    Format                           : UTF-8
    Codec ID                         : S_TEXT/UTF8
    Codec ID/Info                    : UTF-8 Plain Text
    
    

    Show DOWNLOAD
    You must click 'Thank You' before you can see the data contained here.
    You do not have sufficient rights to see the hidden data contained here.

    Code:
    Download semua file. Hapus .RAR kemudian join dengan HJSplit
    Untuk tanya masalah server IDWS silahkan ke SINI
    Kalo ada masalah silahkan lapor via PM atau VM
    Cek Checksum pakai exactfile
    
    Last edited by Thinl; 21-03-2011 at 03:41 AM.

  18. Who Said Thanks:

    There are too many to display.

  19. #3970

    Join Date
    May 2009
    Location
    idws
    Posts
    639
    Thank(s)
    499/85,322
    Rep Power
    6

    Default

    Jackass 3 (2010) UNRATED 720p BluRay


    Code:
    Jackass 3 (2010) UNRATED 720p BluRay x264-TWiZTED
    
    Original title: Jackass 3
    Ganre: Documentary | Action | Comedy
    Duration: 99 min
    Size: 4.37 GB
    imdb: http://www.imdb.com/title/tt1116184/
    Rating: 7.2/10
    You must click 'Thank You' before you can see the data contained here.
    You do not have sufficient rights to see the hidden data contained here.

    You must click 'Thank You' before you can see the data contained here.
    You do not have sufficient rights to see the hidden data contained here.


    Enjoy...

    Show BONUS

    Suka Koleksi Film??? Pake eXtreme Movie Manager Latest Version [Maknyos | MF]
    Best of Video Converter 2011(All FULL) + Comparison[MAKNYOS]
    Best of Video Editing 2011 = CyberLink PowerDirector Ultra64 Latest Version[MAKNYOS]
    All-in-one media player = ArcSoft TotalMedia Theatre Platinum [Maknyos|MF]
    Utk Pecinta/Guru Matematika = SchoolHouse Math Resource Studio [Maknyos|MF]
    Utk Pengguna Setia WinXP = Yamicsoft WinXP Manager Latest Version [Maknyos|MF]
    Kembalikan Data Hilang via Network??? Pake Restorer Ultimate Pro Network [Maknyos|MF]
    Mudahnya Membuat Icon Cantik dg Axialis IconWorkShop Latest Version [MF]
    NetBook Lambat??? Gunakan SysTweak Netbook Optimizer latest Version [Maknyos | MF]
    Remote Manager Super Canggih = NetSupport Manager last Version [MAKNYOS]
    Buat Lembar Soal&Jawaban/ujian/kuisioner Dg Schoolhouse Test 3.1.3.1[Maknyos]
    System Utilities TERLENGKAP = Spotmau PowerSuite | MAKNYOS
    Best of System Utilities 2011 = Advanced System Utilities 3.1.6 + Comparison[MAKNYOS]
    Best Of MP3 Player 2011 = MediaMonkey Gold+Comparison[MAKNYOS]
    Best of Audio Converter 2011(All FULL)+Comparison[MAKNYOS]
    Spyware Doctor with AntiVirus 2011 v8.0.0.623 + Serial [MAKNYOS]
    Animasikan Wajah Anda dg FantaMorph 4.2.6 Deluxe[MAKNYOS]
    Aplikasi Monitor Log dan Disk di Network untuk System Administrator[Maknyos]
    Webroot Antivirus With Spysweeper 2011 7.0.4 + Serial For 2043 Days[MAKNYOS]
    WebCam biasa bs jadi Sistem Pengawasan dg Motion dan Sound detection[MAKNYOS]
    3D-Doctor 4.0.20101105
    Last edited by smarty; 10-04-2011 at 12:20 PM.

  20. Who Said Thanks:

    There are too many to display.

Page 397 of 583 FirstFirst ... 297347387393394395396397398399400401407447497 ... LastLast

Bookmarks

Posting Permissions

  • You may not post new threads
  • You may not post replies
  • You may not post attachments
  • You may not edit your posts
  •  
Indowebster is proudly powered by PT. Gudang Data Indonesia