Page 398 of 583 FirstFirst ... 298348388394395396397398399400401402408448498 ... LastLast
Results 3,971 to 3,980 of 5830

Thread: [Archive] HD Collection | Lokal ONLY | I
http://idws.in/18136

  1. #3971

    Join Date
    Mar 2009
    Location
    Jakarta
    Posts
    420
    Thank(s)
    1/317
    Rep Power
    0

    Default

    Om Thinnl, makasih cup cup ahh buat re-upload Die Hard nya

  2. Who Said Thanks:


  3. #3972

    Join Date
    Dec 2010
    Location
    Jakarta
    Posts
    64
    Thank(s)
    4/927
    Rep Power
    0

    Default

    Quote Originally Posted by AnthraX View Post
    Black.Swan.2010.BluRay.720p.DTS.x264-CHD
    sudah didownload dan lancar :D tengkyuu hehe

  4. Who Said Thanks:


  5. #3973

    Join Date
    Mar 2009
    Location
    Indonesia
    Posts
    50
    Thank(s)
    0/139
    Rep Power
    0

    Default

    Quote Originally Posted by yniko View Post
    Barusan DL + nonton Avatar : James Cameron's nya Inggo
    gak sia" DL 15GB Memang pantas bgt jadi pemenang Oscar di tahun 2009 (atau 2010 kalau salah
    Gak bayangin DL 15GB itu aj aq sekitar 1.5 hari laptop gak mati, upload nya kayak apa ya itu
    GRP sent dah
    Weleh weleh pake apa bos koneksinya ane aja cuma dape top 4 gb perhari. boleh sharing ane mau ganti nih,

    Thanks

  6. #3974

    Join Date
    Jun 2010
    Location
    Thousand Sunny
    Posts
    556
    Thank(s)
    0/2,966
    Rep Power
    4

    Default

    Quote Originally Posted by adreez View Post
    kok kalo mau donlot dari maknyos ga bisa terus ya
    tulisannya wrong ip terus
    ati" bro kena sesuatu loh ntar klo dopost . hhaha
    klo download dri maknyos . siank" gini emank sk error bro
    mending cba download na pas malem" klo ga pagi" banget ~

  7. #3975

    Join Date
    Jan 2011
    Location
    Bandung
    Posts
    53
    Thank(s)
    0/27
    Rep Power
    0

    Default

    Quote Originally Posted by lockmote View Post
    ati" bro kena sesuatu loh ntar klo dopost . hhaha
    klo download dri maknyos . siank" gini emank sk error bro
    mending cba download na pas malem" klo ga pagi" banget ~
    sorry internet na lemot
    sama aja nih eror

  8. #3976

    Join Date
    Apr 2009
    Location
    Earth
    Posts
    28,215
    Thank(s)
    191/149,441
    Blog Entries
    2
    Rep Power
    41

    Default

    Home.Alone.2.Lost.In.New.York.1992.720p.BluRay.x26 4-SiNNERS

    Show INFO
    Code:
    General
    Format                           : Matroska
    File size                        : 6.56 GiB
    Duration                         : 2h 0mn
    Overall bit rate                 : 7 822 Kbps
    Encoded date                     : UTC 2009-10-07 22:49:54
    Writing application              : mkvmerge v2.9.8 ('C'est le bon') built on Aug 13 2009 12:49:06
    Writing library                  : libebml v0.7.7 + libmatroska v0.8.1
    
    Video
    ID                               : 1
    Format                           : AVC
    Format/Info                      : Advanced Video Codec
    Format profile                   : High@L3.1
    Format settings, CABAC           : Yes
    Format settings, ReFrames        : 5 frames
    Codec ID                         : V_MPEG4/ISO/AVC
    Duration                         : 2h 0mn
    Bit rate                         : 6 312 Kbps
    Width                            : 1 280 pixels
    Height                           : 688 pixels
    Display aspect ratio             : 1.860
    Frame rate                       : 23.976 fps
    Color space                      : YUV
    Chroma subsampling               : 4:2:0
    Bit depth                        : 8 bits
    Scan type                        : Progressive
    Bits/(Pixel*Frame)               : 0.299
    Stream size                      : 5.16 GiB (79%)
    Writing library                  : x264 core 76 r1271 496d79d
    Language                         : English
    
    Audio
    ID                               : 2
    Format                           : DTS
    Format/Info                      : Digital Theater Systems
    Codec ID                         : A_DTS
    Duration                         : 2h 0mn
    Bit rate mode                    : Constant
    Bit rate                         : 1 510 Kbps
    Channel(s)                       : 6 channels
    Channel positions                : Front: L C R, Side: L R, LFE
    Sampling rate                    : 48.0 KHz
    Bit depth                        : 24 bits
    Compression mode                 : Lossy
    Stream size                      : 1.27 GiB (19%)
    
    Text
    ID                               : 3
    Format                           : UTF-8
    Codec ID                         : S_TEXT/UTF8
    Codec ID/Info                    : UTF-8 Plain Text
    Language                         : English
    
    

    Show DOWNLOAD
    You must click 'Thank You' before you can see the data contained here.
    You do not have sufficient rights to see the hidden data contained here.

    Code:
    Download semua file. Hapus .RAR kemudian join dengan HJSplit
    Untuk tanya masalah server IDWS silahkan ke SINI
    Kalo ada masalah silahkan lapor via PM atau VM
    Cek Checksum pakai exactfile
    
    Last edited by Thinl; 21-03-2011 at 08:18 PM.

  9. Who Said Thanks:

    There are too many to display.

  10. #3977

    Join Date
    Apr 2009
    Location
    Earth
    Posts
    28,215
    Thank(s)
    216/149,441
    Blog Entries
    2
    Rep Power
    41

    Default

    Paranormal Activity 2 (2010) 720p-Felony

    Show INFO
    Code:
    General
    Format                           : Matroska
    File size                        : 4.37 GiB
    Duration                         : 1h 38mn
    Overall bit rate                 : 6 384 Kbps
    Encoded date                     : UTC 2011-01-27 09:31:06
    Writing application              : mkvmerge v4.0.0 ('The Stars were mine') built on Jun  6 2010 16:18:42
    Writing library                  : libebml v1.0.0 + libmatroska v1.0.0
    
    Video
    ID                               : 1
    Format                           : AVC
    Format/Info                      : Advanced Video Codec
    Format profile                   : High@L4.1
    Format settings, CABAC           : Yes
    Format settings, ReFrames        : 5 frames
    Codec ID                         : V_MPEG4/ISO/AVC
    Duration                         : 1h 38mn
    Bit rate                         : 4 877 Kbps
    Width                            : 1 280 pixels
    Height                           : 720 pixels
    Display aspect ratio             : 16:9
    Frame rate                       : 23.976 fps
    Color space                      : YUV
    Chroma subsampling               : 4:2:0
    Bit depth                        : 8 bits
    Scan type                        : Progressive
    Bits/(Pixel*Frame)               : 0.221
    Stream size                      : 3.25 GiB (74%)
    Writing library                  : x264 core 112 r1867 22bfd31
    Language                         : English
    
    Audio
    ID                               : 2
    Format                           : DTS
    Format/Info                      : Digital Theater Systems
    Codec ID                         : A_DTS
    Duration                         : 1h 38mn
    Bit rate mode                    : Constant
    Bit rate                         : 1 510 Kbps
    Channel(s)                       : 6 channels
    Channel positions                : Front: L C R, Side: L R, LFE
    Sampling rate                    : 48.0 KHz
    Bit depth                        : 24 bits
    Compression mode                 : Lossy
    Stream size                      : 1.03 GiB (24%)
    Language                         : English
    
    Text
    ID                               : 3
    Format                           : UTF-8
    Codec ID                         : S_TEXT/UTF8
    Codec ID/Info                    : UTF-8 Plain Text
    Language                         : English
    
    

    Show DOWNLOAD
    You must click 'Thank You' before you can see the data contained here.
    You do not have sufficient rights to see the hidden data contained here.

    Code:
    Download semua file. Hapus .RAR kemudian join dengan HJSplit
    Untuk tanya masalah server IDWS silahkan ke SINI
    Kalo ada masalah silahkan lapor via PM atau VM
    Cek Checksum pakai exactfile
    
    Last edited by Thinl; 21-03-2011 at 08:19 PM.

  11. Who Said Thanks:

    There are too many to display.

  12. #3978

    Join Date
    May 2009
    Location
    idws
    Posts
    639
    Thank(s)
    133/84,118
    Rep Power
    5

    Default

    Hereafter (2010) 720p BluRay


    Code:
    Hereafter (2010) 720p BluRay DTS x264-DMZ
    
    RUNTiME........ 2h 9m
    ViDEO CODEC.... x264                                                                       
    ViDEO BiTRATE.. 7273 kbps avg
    RESOLUTiON..... 1280x536
    FRAMERATE...... 23.98
    AUDiO CODEC.... DTS 6 chnls
    AUDiO BiTRATE.. 1510 kbps
    FiLE SiZE...... 6.55 GB
    SUBTITLE....... English
    imdb........... http://www.imdb.com/title/tt0479997/
    You must click 'Thank You' before you can see the data contained here.
    You do not have sufficient rights to see the hidden data contained here.


    You must click 'Thank You' before you can see the data contained here.
    You do not have sufficient rights to see the hidden data contained here.


    Show SS




    Enjoy...

    Show BONUS

    Suka Koleksi Film??? Pake eXtreme Movie Manager Latest Version [Maknyos | MF]
    Best of Video Converter 2011(All FULL) + Comparison[MAKNYOS]
    Best of Video Editing 2011 = CyberLink PowerDirector Ultra64 Latest Version[MAKNYOS]
    All-in-one media player = ArcSoft TotalMedia Theatre Platinum [Maknyos|MF]
    Utk Pecinta/Guru Matematika = SchoolHouse Math Resource Studio [Maknyos|MF]
    Utk Pengguna Setia WinXP = Yamicsoft WinXP Manager Latest Version [Maknyos|MF]
    Kembalikan Data Hilang via Network??? Pake Restorer Ultimate Pro Network [Maknyos|MF]
    Mudahnya Membuat Icon Cantik dg Axialis IconWorkShop Latest Version [MF]
    NetBook Lambat??? Gunakan SysTweak Netbook Optimizer latest Version [Maknyos | MF]
    Remote Manager Super Canggih = NetSupport Manager last Version [MAKNYOS]
    Buat Lembar Soal&Jawaban/ujian/kuisioner Dg Schoolhouse Test 3.1.3.1[Maknyos]
    System Utilities TERLENGKAP = Spotmau PowerSuite | MAKNYOS
    Best of System Utilities 2011 = Advanced System Utilities 3.1.6 + Comparison[MAKNYOS]
    Best Of MP3 Player 2011 = MediaMonkey Gold+Comparison[MAKNYOS]
    Best of Audio Converter 2011(All FULL)+Comparison[MAKNYOS]
    Spyware Doctor with AntiVirus 2011 v8.0.0.623 + Serial [MAKNYOS]
    Animasikan Wajah Anda dg FantaMorph 4.2.6 Deluxe[MAKNYOS]
    Aplikasi Monitor Log dan Disk di Network untuk System Administrator[Maknyos]
    Webroot Antivirus With Spysweeper 2011 7.0.4 + Serial For 2043 Days[MAKNYOS]
    WebCam biasa bs jadi Sistem Pengawasan dg Motion dan Sound detection[MAKNYOS]
    3D-Doctor 4.0.20101105
    Last edited by smarty; 10-04-2011 at 11:59 AM.

  13. Who Said Thanks:

    There are too many to display.

  14. #3979

    Join Date
    May 2008
    Location
    J.a.k.a.r.t.a
    Posts
    21,177
    Thank(s)
    206/154,751
    Blog Entries
    8
    Rep Power
    25

    Default

    Perfume: The Story of a Murderer 1080p (2006)

    IMDB 7.5/10

    Video Info

    Code:
    General
    Complete name                    : Perfume.2006.1080p.mkv
    Format                           : Matroska
    File size                        : 12.2 GiB
    Duration                         : 2h 27mn
    Overall bit rate                 : 11.8 Mbps
    Encoded date                     : UTC 2010-05-29 08:17:59
    Writing application              : mkvmerge v3.3.0 ('Language') built on Mar 24 2010 14:59:24
    Writing library                  : libebml v0.8.0 + libmatroska v0.9.0
    
    Video
    ID                               : 1
    Format                           : AVC
    Format/Info                      : Advanced Video Codec
    Format profile                   : High@L3.2
    Format settings, CABAC           : Yes
    Format settings, ReFrames        : 5 frames
    Codec ID                         : V_MPEG4/ISO/AVC
    Duration                         : 2h 27mn
    Bit rate                         : 10.3 Mbps
    Width                            : 1 920 pixels
    Height                           : 816 pixels
    Display aspect ratio             : 2.35:1
    Frame rate                       : 23.976 fps
    Color space                      : YUV
    Chroma subsampling               : 4:2:0
    Bit depth                        : 8 bits
    Scan type                        : Progressive
    Bits/(Pixel*Frame)               : 0.274
    Stream size                      : 10.4 GiB (85%)
    File Info

    File size: 12 GB
    File server: IDWS, 26 parts @ 490 MB

    Show Video


    You must click 'Thank You' before you can see the data contained here.
    You do not have sufficient rights to see the hidden data contained here.

    Joining Guide

    PS : Sblm mendownload film 1080p...
    pastikan terlebih dahulu semua link masih hidup...
    caranya dengan mengecheck 1 persatu link di IDM...
    klo semua link bs didonlod via IDM...
    berarti film bs di join

    All risk is up to leecher

    Join all parts using HJSplit (Win) or MacHacha (Mac)

    Gimana cara gabungin file yg displit pake HJSplit (ext .001, .002, dst)?

    Last edited by inggo; 14-08-2011 at 08:29 PM.
    on the Journey of knowledge
    PhD

  15. Who Said Thanks:

    There are too many to display.

  16. #3980

    Join Date
    May 2008
    Location
    J.a.k.a.r.t.a
    Posts
    21,177
    Thank(s)
    177/154,751
    Blog Entries
    8
    Rep Power
    25

    Default

    Knowing 1080p (2009)

    IMDB 6.4/10

    Video Info

    Code:
    General
    Complete name                    : Knowing.1080p.2009.mkv
    Format                           : Matroska
    File size                        : 10.9 GiB
    Duration                         : 2h 1mn
    Overall bit rate                 : 12.9 Mbps
    Encoded date                     : UTC 2009-06-22 08:39:13
    Writing application              : mkvmerge v2.9.0 ('Moanin'') built on May 22 2009 17:46:31
    Writing library                  : libebml v0.7.7 + libmatroska v0.8.1
    
    Video
    ID                               : 1
    Format                           : AVC
    Format/Info                      : Advanced Video Codec
    Format profile                   : High@L4.1
    Format settings, CABAC           : Yes
    Format settings, ReFrames        : 5 frames
    Codec ID                         : V_MPEG4/ISO/AVC
    Duration                         : 2h 1mn
    Bit rate                         : 11.4 Mbps
    Width                            : 1 920 pixels
    Height                           : 816 pixels
    Display aspect ratio             : 2.35:1
    Frame rate                       : 23.976 fps
    Color space                      : YUV
    Chroma subsampling               : 4:2:0
    Bit depth                        : 8 bits
    Scan type                        : Progressive
    Bits/(Pixel*Frame)               : 0.303
    Stream size                      : 9.43 GiB (86%)
    File Info

    File size: 10 GB
    File server: IDWS, 23 parts @ 490 MB

    Show Video


    You must click 'Thank You' before you can see the data contained here.
    You do not have sufficient rights to see the hidden data contained here.

    Joining Guide

    PS : Sblm mendownload film 1080p...
    pastikan terlebih dahulu semua link masih hidup...
    caranya dengan mengecheck 1 persatu link di IDM...
    klo semua link bs didonlod via IDM...
    berarti film bs di join

    All risk is up to leecher

    Join all parts using HJSplit (Win) or MacHacha (Mac)

    Gimana cara gabungin file yg displit pake HJSplit (ext .001, .002, dst)?

    Last edited by inggo; 14-08-2011 at 08:29 PM.
    on the Journey of knowledge
    PhD

  17. Who Said Thanks:

    There are too many to display.

Page 398 of 583 FirstFirst ... 298348388394395396397398399400401402408448498 ... LastLast

Bookmarks

Posting Permissions

  • You may not post new threads
  • You may not post replies
  • You may not post attachments
  • You may not edit your posts
  •  
Indowebster is proudly powered by PT. Gudang Data Indonesia