Page 432 of 583 FirstFirst ... 332382422428429430431432433434435436442482532 ... LastLast
Results 4,311 to 4,320 of 5830

Thread: [Archive] HD Collection | Lokal ONLY | I
http://idws.in/18136

  1. #4311

    Join Date
    Feb 2010
    Location
    jogja
    Posts
    24,802
    Thank(s)
    1/555,321
    Blog Entries
    5
    Rep Power
    832

    Default

    Quote Originally Posted by dwihongkong View Post
    Robin.Hood.Directors.Cut.2010.720p.BluRay.DTS.x264-titul
    part.003 =files_not_found.htm=

    yg lainnya belum tau, nanggung kang momod...
    donlod yang dari link idws aja...
    kalo maknyos,,mungkin gak ada re-upload lagi~

  2. Who Said Thanks:


  3. #4312

    Join Date
    Feb 2010
    Location
    Denpasar - Bali
    Posts
    31
    Thank(s)
    11/137
    Rep Power
    0

    Default

    Quote Originally Posted by smarty View Post
    13 (2010) 720p BluRay


    Code:
    13 (2010) 720p BluRay x264- BRMP
    
    iMDB RATiNG...: 6.5/10  7205 votes
    GENRE.........: Drama / Thriller
    PLOT..........: A naive young man assumes a dead man's identity and finds himself embroiled 
                    in an underground world of power, violence, and chance where men gamble behind closed doors 
    		on the lives of other men.   
    iMDB LiNK.....: http://www.imdb.com/title/tt0798817/
    
    DURATiON......: 1h 37m
    SiZE..........: 4.37 GB
    ViDEO CODEC...: x264
    FRAMERATE.....: 24.00 fps
    BiTRATE.......: 4933 Kbps
    RESOLUTiON....: 1280 X 536
    AUDiO.........: ENG DTS 5.1CH 1509Kbps
    SUBTiTLES.....: None
    Show SS awas BWK




    *** hidden content ***

    Code:
    1. Rename sesuai urutan (tanpa mengubah/menghapus extensi *.rar)
    2. Extract menggunakan Winrar (recomended)
    3. Jika terjadi error saat extract, gunakan menu repair pada Winrar (Recovery record added)
    enjooyyy...
    Yang baik hati boleh donk bagi-bagi ginian
    om smarty, file checksum nya gak bisa di download...
    error trus... apa yg laen juga gak bisa download atau gw ndiri ya...

  4. #4313

    Join Date
    Feb 2010
    Location
    jogja
    Posts
    24,802
    Thank(s)
    0/555,321
    Blog Entries
    5
    Rep Power
    832

    Default

    Quote Originally Posted by arekBali View Post
    om smarty, file checksum nya gak bisa di download...
    error trus... apa yg laen juga gak bisa download atau gw ndiri ya...
    checksum-nya ada di server 36

    emang lom bener tu server
    PM aja orangnya suruh re-upload

  5. #4314

    Join Date
    Apr 2009
    Location
    Earth
    Posts
    28,215
    Thank(s)
    223/149,483
    Blog Entries
    2
    Rep Power
    41

    Default

    Aeon Flux (1080) (2005)

    Show INFO
    Code:
    General
    Complete name                    : F:\HD Movies 3\Aeon Flux (2005) 1080p\Aeon Flux (1080) (2005).mkv
    Format                           : Matroska
    File size                        : 7.95 GiB
    Duration                         : 1h 32mn
    Overall bit rate                 : 12.3 Mbps
    Encoded date                     : UTC 2011-03-21 10:51:17
    Writing application              : mkvmerge v4.3.0 ('Escape from the Island') built on Sep  5 2010 10:30:51
    Writing library                  : libebml v1.0.0 + libmatroska v1.0.0
    
    Video
    ID                               : 1
    Format                           : AVC
    Format/Info                      : Advanced Video Codec
    Format profile                   : High@L4.1
    Format settings, CABAC           : Yes
    Format settings, ReFrames        : 5 frames
    Muxing mode                      : Header stripping
    Codec ID                         : V_MPEG4/ISO/AVC
    Duration                         : 1h 32mn
    Bit rate                         : 11.6 Mbps
    Width                            : 1 920 pixels
    Height                           : 816 pixels
    Display aspect ratio             : 2.35:1
    Frame rate                       : 23.976 fps
    Color space                      : YUV
    Chroma subsampling               : 4:2:0
    Bit depth                        : 8 bits
    Scan type                        : Progressive
    Bits/(Pixel*Frame)               : 0.309
    Stream size                      : 7.37 GiB (93%)
    Title                            : h264 1920x816
    Writing library                  : x264 core 60
    Language                         : English
    
    Audio
    ID                               : 2
    Format                           : AC-3
    Format/Info                      : Audio Coding 3
    Mode extension                   : CM (complete main)
    Muxing mode                      : Header stripping
    Codec ID                         : A_AC3
    Duration                         : 1h 32mn
    Bit rate mode                    : Constant
    Bit rate                         : 640 Kbps
    Channel(s)                       : 6 channels
    Channel positions                : Front: L C R, Side: L R, LFE
    Sampling rate                    : 48.0 KHz
    Bit depth                        : 16 bits
    Compression mode                 : Lossy
    Stream size                      : 425 MiB (5%)
    Title                            : AC3 5.1 640kbit
    Language                         : English
    
    Text
    ID                               : 3
    Format                           : UTF-8
    Codec ID                         : S_TEXT/UTF8
    Codec ID/Info                    : UTF-8 Plain Text
    Title                            : English
    Language                         : English
    
    

    http://www.imdb.com/title/tt0402022/
    Show DOWNLOAD

    Code:
    SILAHKAN DIBACA DAHULU
    Download semua file. Join dengan HJSplit
    Untuk tanya masalah server IDWS silahkan ke SINI
    Cek Checksum pakai exactfile
    Bingung cara checksum? Bisa di cek disini
    
    Kalo ada masalah silahkan lapor via PM atau VM
    
    You must click 'Thank You' before you can see the data contained here.
    You do not have sufficient rights to see the hidden data contained here.
    Last edited by Thinl; 23-09-2011 at 05:53 AM.

  6. Who Said Thanks:

    There are too many to display.

  7. #4315

    Join Date
    Apr 2009
    Location
    Earth
    Posts
    28,215
    Thank(s)
    223/149,483
    Blog Entries
    2
    Rep Power
    41

    Default

    Face Off (1997)-1080p

    Show INFO
    Code:
    
    General
    Format                           : Matroska
    File size                        : 9.16 GiB
    Duration                         : 2h 19mn
    Overall bit rate                 : 9 430 Kbps
    Movie name                       : Shadowlord
    Encoded date                     : UTC 2008-02-11 06:16:41
    Writing application              : mkvmerge v2.1.0 ('Another Place To Fall') built on Aug 19 2007 13:40:07
    Writing library                  : libebml v0.7.7 + libmatroska v0.8.1
    
    Video
    ID                               : 1
    Format                           : AVC
    Format/Info                      : Advanced Video Codec
    Format profile                   : High@L5.1
    Format settings, CABAC           : Yes
    Format settings, ReFrames        : 8 frames
    Codec ID                         : V_MPEG4/ISO/AVC
    Duration                         : 2h 19mn
    Bit rate                         : 7 478 Kbps
    Width                            : 1 920 pixels
    Height                           : 800 pixels
    Display aspect ratio             : 2.40:1
    Frame rate                       : 23.976 fps
    Color space                      : YUV
    Chroma subsampling               : 4:2:0
    Bit depth                        : 8 bits
    Scan type                        : Progressive
    Bits/(Pixel*Frame)               : 0.203
    Stream size                      : 7.08 GiB (77%)
    Title                            : Cara a Cara
    Writing library                  : x264 core 56 svn-680
    Language                         : English
    
    Audio #1
    ID                               : 2
    Format                           : AC-3
    Format/Info                      : Audio Coding 3
    Mode extension                   : CM (complete main)
    Codec ID                         : A_AC3
    Duration                         : 2h 19mn
    Bit rate mode                    : Constant
    Bit rate                         : 448 Kbps
    Channel(s)                       : 6 channels
    Channel positions                : Front: L C R, Side: L R, LFE
    Sampling rate                    : 48.0 KHz
    Bit depth                        : 16 bits
    Compression mode                 : Lossy
    Stream size                      : 446 MiB (5%)
    Title                            : Español AC3 5.1
    Language                         : Spanish
    
    Audio #2
    ID                               : 3
    Format                           : DTS
    Format/Info                      : Digital Theater Systems
    Format profile                   : ES
    Codec ID                         : A_DTS
    Duration                         : 2h 19mn
    Bit rate mode                    : Constant
    Bit rate                         : 1 510 Kbps
    Channel(s)                       : 7 channels / 6 channels
    Channel positions                : Front: L C R, Side: L R, Back: C, LFE / Front: L C R, Side: L R, LFE
    Sampling rate                    : 48.0 KHz
    Bit depth                        : 24 bits
    Compression mode                 : Lossy
    Stream size                      : 1.47 GiB (16%)
    Title                            : Inglés DTS 5.1
    Language                         : English
    
    Text #1
    ID                               : 4
    Format                           : UTF-8
    Codec ID                         : S_TEXT/UTF8
    Codec ID/Info                    : UTF-8 Plain Text
    Title                            : Español
    Language                         : Spanish
    
    Text #2
    ID                               : 5
    Format                           : UTF-8
    Codec ID                         : S_TEXT/UTF8
    Codec ID/Info                    : UTF-8 Plain Text
    Title                            : Inglés
    Language                         : English
    
    
    

    http://www.imdb.com/title/tt0119094/

    Show DOWNLOAD
    You must click 'Thank You' before you can see the data contained here.
    You do not have sufficient rights to see the hidden data contained here.

    Code:
    Download semua file. Hapus .RAR kemudian join dengan HJSplit
    Untuk tanya masalah server IDWS silahkan ke SINI
    Kalo ada masalah silahkan lapor via PM atau VM
    Cek Checksum pakai exactfile
    
    Last edited by Thinl; 03-10-2011 at 10:25 PM.

  8. Who Said Thanks:

    There are too many to display.

  9. #4316

    Join Date
    Apr 2009
    Location
    Weeping Hollow
    Posts
    8,710
    Thank(s)
    3/24,809
    Rep Power
    16

    Default

    Quote Originally Posted by Demos07 View Post
    Aduh please banget checksumnya avatar, pengen nonton nih lama bgt nunggu downloadan ga bisa ditonton sedih jadinya.... wkwk
    ini checksum dari hasil download saya ... mudah2an bisa membantu ...

    Code:
    ; Checksums generated by ExactFile 1.0.0.15
    ; http://www.exactfile.com
    ; 4/10/2011 5:13:41 AM
    
    99e4e4b750925a214c14e166edfb9f01 *Avatar.EXTENDED.1080p.2009.En.srt
    8c9d776b5ca2bd7934704969530d4bc9 *Avatar.EXTENDED.1080p.2009.Id.srt
    1024d4e02cdfdcfe2d29af36acdc516b *Avatar.EXTENDED.1080p.2009.mkv
    3abb64d60caf777a854145adcc91374d *Avatar.EXTENDED.1080p.2009.mkv.001
    469f332b691a926926dd3bd2852202a8 *Avatar.EXTENDED.1080p.2009.mkv.002
    f249ac2606e8142b6cd00f74d67a4eaf *Avatar.EXTENDED.1080p.2009.mkv.003
    4ce1ef56b3c225190bb3c66cedcdf869 *Avatar.EXTENDED.1080p.2009.mkv.004
    ea3a167b98c9d91f37f373f7ba54840b *Avatar.EXTENDED.1080p.2009.mkv.005
    cfebabe5c2473d5a8dd3a981b5ef5f0c *Avatar.EXTENDED.1080p.2009.mkv.006
    2716a834512146014a4e57ce77be7941 *Avatar.EXTENDED.1080p.2009.mkv.007
    0ea1a6c7a80a59a59b40490758cf3ba8 *Avatar.EXTENDED.1080p.2009.mkv.008
    5b9129dac90916bb027cd9866ee8f600 *Avatar.EXTENDED.1080p.2009.mkv.009
    f9db9f18b5631d59f69ed2d3b1c6392d *Avatar.EXTENDED.1080p.2009.mkv.010
    d98b2c80bf8173181b195c07f7ae77cc *Avatar.EXTENDED.1080p.2009.mkv.011
    8d699fa339d548678e6a39e3c6e75255 *Avatar.EXTENDED.1080p.2009.mkv.012
    817e3b42ee9c61b79bee47dbb0158abf *Avatar.EXTENDED.1080p.2009.mkv.013
    e3cbc5951d23fe05ed4531ceaf9f3128 *Avatar.EXTENDED.1080p.2009.mkv.014
    0cb9f4d9b5eecc55a7564e03ee14018e *Avatar.EXTENDED.1080p.2009.mkv.015
    7ed988a5020e18b67f765667be48061e *Avatar.EXTENDED.1080p.2009.mkv.016
    7ee1cc17b5c5e32e0a1f41b958ad9498 *Avatar.EXTENDED.1080p.2009.mkv.017
    6c11292b15acec2b85e75c78f512f0b9 *Avatar.EXTENDED.1080p.2009.mkv.018
    fd2c263a5e827cb92b7f41764bc4b572 *Avatar.EXTENDED.1080p.2009.mkv.019
    cae12dc0eae105783fd8b4dfdda1412e *Avatar.EXTENDED.1080p.2009.mkv.020
    b188ea182bb967c81fc2a2d087a69473 *Avatar.EXTENDED.1080p.2009.mkv.021
    42912e83a9cc1123f92970318ecb06f9 *Avatar.EXTENDED.1080p.2009.mkv.022
    8cb3074ab8601cdad8e5f6dbdfc3ae2c *Avatar.EXTENDED.1080p.2009.mkv.023
    51e681fee130c577ff4e31e40515c505 *Avatar.EXTENDED.1080p.2009.mkv.024
    5a6bed09ae170423671ee4bb9e7902a2 *Avatar.EXTENDED.1080p.2009.mkv.025
    f5f3dd7fac5bb0f85d26add35a357642 *Avatar.EXTENDED.1080p.2009.mkv.026
    ad55d8393199ca242d3c3bc991d41013 *Avatar.EXTENDED.1080p.2009.mkv.027
    c106109c3fefb9773cae9236afefd3e6 *Avatar.EXTENDED.1080p.2009.mkv.028
    db3c749d6446a3fc1aba6201291d080d *Avatar.EXTENDED.1080p.2009.mkv.029
    1051cd85245d0fb8c54e1fddd67be477 *Avatar.EXTENDED.1080p.2009.mkv.030
    b0ff3e68a843398f1324bae00a7e77cd *Avatar.EXTENDED.1080p.2009.mkv.031
    52deca1b3dbe7f0e02d11762128cb288 *Avatar.EXTENDED.1080p.2009.mkv.032
    ; 35 files hashed.

  10. Who Said Thanks:


  11. #4317

    Join Date
    May 2009
    Location
    idws
    Posts
    639
    Thank(s)
    0/84,139
    Rep Power
    5

    Default

    Quote Originally Posted by arekBali View Post
    om smarty, file checksum nya gak bisa di download...
    error trus... apa yg laen juga gak bisa download atau gw ndiri ya...
    sudah reupload...silakan dinikmati...

    "A future fantasy is no more than vain hope"

    [ HD Movies | Windows Software ]

  12. #4318

    Join Date
    May 2009
    Location
    idws
    Posts
    639
    Thank(s)
    142/84,139
    Rep Power
    5

    Default

    Altitude (2010) 720p Bluray x264-BRMP


    Code:
    Altitude 720p Bluray x264-BRMP
    
    iMDB RATiNG...: 5.0/10 (2,570 votes)
    GENRE.........: Thriller
    PLOT..........: After a mysterious malfunction sends their small plane climbing out of control, a rookie pilot and her four teenage friends
                    find themselves trapped in a deadly showdown with a supernatural force. 
    iMDB LiNK.....: http://www.imdb.com/title/tt1407049/
    
    DURATiON......: 1h 30mn
    SiZE..........: 4.9 GB
    ViDEO CODEC...: x264
    FRAMERATE.....: 24.00 fps
    BiTRATE.......: 6289 Kbps
    RESOLUTiON....: 1280 X 528
    AUDiO.........: ENG AC3 640 Kbps
    SUBTiTLES.....: English
    You must click 'Thank You' before you can see the data contained here.
    You do not have sufficient rights to see the hidden data contained here.


    Code:
    1. Rename sesuai urutan (tanpa mengubah/menghapus extensi *.rar)
    2. Extract menggunakan Winrar (recomended)
    3. Jika terjadi error saat extract, gunakan menu repair pada Winrar (Recovery record added)
    enjooyyy...
    Yang baik hati boleh donk bagi-bagi ginian
    Last edited by smarty; 10-04-2011 at 11:18 AM.

    "A future fantasy is no more than vain hope"

    [ HD Movies | Windows Software ]

  13. Who Said Thanks:

    There are too many to display.

  14. #4319

    Join Date
    May 2009
    Location
    indonesia
    Posts
    146
    Thank(s)
    3/4,811
    Rep Power
    0

    Default

    Quote Originally Posted by smarty View Post
    Altitude (2010) 720p Bluray x264-BRMP
    Bro itu link nya part 2 3 4 5 6 ampe 9 kok ke part 1 semua

  15. Who Said Thanks:


  16. #4320

    Join Date
    May 2009
    Location
    idws
    Posts
    639
    Thank(s)
    2/84,139
    Rep Power
    5

    Default

    Quote Originally Posted by turkey88 View Post
    Bro itu link nya part 2 3 4 5 6 ampe 9 kok ke part 1 semua
    sory....sdh diganti linknya
    makasih laporanya...
    met menikmati....

    "A future fantasy is no more than vain hope"

    [ HD Movies | Windows Software ]

  17. Who Said Thanks:


Page 432 of 583 FirstFirst ... 332382422428429430431432433434435436442482532 ... LastLast

Bookmarks

Posting Permissions

  • You may not post new threads
  • You may not post replies
  • You may not post attachments
  • You may not edit your posts
  •  
Indowebster is proudly powered by PT. Gudang Data Indonesia