Page 437 of 583 FirstFirst ... 337387427433434435436437438439440441447487537 ... LastLast
Results 4,361 to 4,370 of 5830

Thread: [Archive] HD Collection | Lokal ONLY | I
http://idws.in/18136

  1. #4361

    Join Date
    May 2009
    Location
    idws
    Posts
    639
    Thank(s)
    1/85,515
    Rep Power
    6

    Default

    Quote Originally Posted by roxas_leon View Post
    bro... ini film kok isi part na smua part 6????? mohon di cek n di re upload lgi.. thx n di tunggu
    gw cek linknya urut aj kok gan, part 01 sampe part 9...
    ada screensyut?

    "A future fantasy is no more than vain hope"

    [ HD Movies | Windows Software ]

  2. Who Said Thanks:


  3. #4362

    Join Date
    Apr 2009
    Location
    Earth
    Posts
    28,532
    Thank(s)
    317/153,004
    Blog Entries
    2
    Rep Power
    46

    Default

    Titanic [1997] [720p]

    Show INFO
    Code:
    General
    Format                           : Matroska
    File size                        : 9.01 GiB
    Duration                         : 3h 7mn
    Overall bit rate                 : 6 895 Kbps
    Encoded date                     : UTC 2008-04-29 21:19:16
    Writing application              : mkvmerge v2.2.0 ('Turn It On Again') built on Mar  4 2008 12:58:26
    Writing library                  : libebml v0.7.7 + libmatroska v0.8.1
    
    Video
    ID                               : 1
    Format                           : AVC
    Format/Info                      : Advanced Video Codec
    Format profile                   : High@L4.1
    Format settings, CABAC           : Yes
    Format settings, ReFrames        : 3 frames
    Codec ID                         : V_MPEG4/ISO/AVC
    Duration                         : 3h 7mn
    Bit rate mode                    : Variable
    Bit rate                         : 5 862 Kbps
    Maximum bit rate                 : 25.0 Mbps
    Width                            : 1 280 pixels
    Height                           : 544 pixels
    Display aspect ratio             : 2.35:1
    Frame rate                       : 25.000 fps
    Color space                      : YUV
    Chroma subsampling               : 4:2:0
    Bit depth                        : 8 bits
    Scan type                        : Progressive
    Bits/(Pixel*Frame)               : 0.337
    Stream size                      : 7.66 GiB (85%)
    
    Audio #1
    ID                               : 2
    Format                           : AC-3
    Format/Info                      : Audio Coding 3
    Mode extension                   : CM (complete main)
    Codec ID                         : A_AC3
    Duration                         : 3h 7mn
    Bit rate mode                    : Constant
    Bit rate                         : 448 Kbps
    Channel(s)                       : 6 channels
    Channel positions                : Front: L C R, Side: L R, LFE
    Sampling rate                    : 48.0 KHz
    Bit depth                        : 16 bits
    Compression mode                 : Lossy
    Delay relative to video          : 96ms
    Stream size                      : 599 MiB (6%)
    Title                            : English AC3 448 Kbps
    Language                         : English
    
    Audio #2
    ID                               : 3
    Format                           : AC-3
    Format/Info                      : Audio Coding 3
    Mode extension                   : CM (complete main)
    Codec ID                         : A_AC3
    Duration                         : 3h 7mn
    Bit rate mode                    : Constant
    Bit rate                         : 448 Kbps
    Channel(s)                       : 6 channels
    Channel positions                : Front: L C R, Side: L R, LFE
    Sampling rate                    : 48.0 KHz
    Bit depth                        : 16 bits
    Compression mode                 : Lossy
    Stream size                      : 599 MiB (6%)
    Title                            : Russian AC3 448 Kbps
    Language                         : Russian
    
    Text
    ID                               : 4
    Format                           : UTF-8
    Codec ID                         : S_TEXT/UTF8
    Codec ID/Info                    : UTF-8 Plain Text
    Language                         : English
    
    

    http://www.imdb.com/title/tt0120338/
    Show DOWNLOAD

    Code:
    SILAHKAN DIBACA DAHULU
    Download semua file. Join dengan HJSplit
    Untuk tanya masalah server IDWS silahkan ke SINI
    Cek Checksum pakai exactfile
    Bingung cara checksum? Bisa di cek disini
    
    Kalo ada masalah silahkan lapor via PM atau VM
    
    You must click 'Thank You' before you can see the data contained here.
    You do not have sufficient rights to see the hidden data contained here.
    Last edited by Thinl; 23-09-2011 at 05:52 AM.

  4. Who Said Thanks:

    There are too many to display.

  5. #4363

    Join Date
    Apr 2009
    Location
    Earth
    Posts
    28,532
    Thank(s)
    553/153,004
    Blog Entries
    2
    Rep Power
    46

    Default

    The Day After Tomorrow [2004] [1080p]

    Show INFO
    Code:
    
    General
    Format                           : Matroska
    File size                        : 12.2 GiB
    Duration                         : 2h 3mn
    Overall bit rate                 : 14.1 Mbps
    Movie name                       : -=HANSMER=-
    Encoded date                     : UTC 2008-06-02 09:44:25
    Writing application              : mkvmerge v2.2.0 ('Turn It On Again') built on Mar  4 2008 12:58:26
    Writing library                  : libebml v0.7.7 + libmatroska v0.8.1
    
    Video
    ID                               : 1
    Format                           : AVC
    Format/Info                      : Advanced Video Codec
    Format profile                   : High@L4.1
    Format settings, CABAC           : Yes
    Format settings, ReFrames        : 5 frames
    Codec ID                         : V_MPEG4/ISO/AVC
    Duration                         : 2h 3mn
    Bit rate                         : 12.6 Mbps
    Width                            : 1 920 pixels
    Height                           : 816 pixels
    Display aspect ratio             : 2.35:1
    Frame rate                       : 23.976 fps
    Color space                      : YUV
    Chroma subsampling               : 4:2:0
    Bit depth                        : 8 bits
    Scan type                        : Progressive
    Bits/(Pixel*Frame)               : 0.335
    Stream size                      : 10.6 GiB (87%)
    Title                            : The Day After Tomorrow 2004 1080p Blu-Ray DTS x264-CtrlHD
    Writing library                  : x264 core 58 r771M b6a966a
    Language                         : English
    
    Audio
    ID                               : 2
    Format                           : DTS
    Format/Info                      : Digital Theater Systems
    Codec ID                         : A_DTS
    Duration                         : 2h 3mn
    Bit rate mode                    : Constant
    Bit rate                         : 1 510 Kbps
    Channel(s)                       : 6 channels
    Channel positions                : Front: L C R, Side: L R, LFE
    Sampling rate                    : 48.0 KHz
    Bit depth                        : 24 bits
    Compression mode                 : Lossy
    Stream size                      : 1.30 GiB (11%)
    Language                         : English
    
    Text #1
    ID                               : 3
    Format                           : UTF-8
    Codec ID                         : S_TEXT/UTF8
    Codec ID/Info                    : UTF-8 Plain Text
    Language                         : Russian
    
    Text #2
    ID                               : 4
    Format                           : UTF-8
    Codec ID                         : S_TEXT/UTF8
    Codec ID/Info                    : UTF-8 Plain Text
    Language                         : English
    
    
    

    http://www.imdb.com/title/tt0319262/

    Show DOWNLOAD
    You must click 'Thank You' before you can see the data contained here.
    You do not have sufficient rights to see the hidden data contained here.

    Code:
    Download semua file. Hapus .RAR kemudian join dengan HJSplit
    Untuk tanya masalah server IDWS silahkan ke SINI
    Kalo ada masalah silahkan lapor via PM atau VM
    Cek Checksum pakai exactfile
    
    Last edited by Thinl; 13-04-2011 at 07:16 AM.

  6. Who Said Thanks:

    There are too many to display.

  7. #4364

    Join Date
    Feb 2010
    Location
    indo
    Posts
    5
    Thank(s)
    24/39
    Rep Power
    0

    Default

    Quote Originally Posted by AnthraX View Post
    Harry.Potter.And.The.Deathly.Hallows.Part.1.720p.B luRay.x264-TWiZTED

    Code:
    NAME.....................: Harry Potter and The Deathly Hallows : Part 1  (2010)
    GENRE....................: Adventure | Family | Fantasy
    RATING...................: 7.8/10      60,413 votes
    http://www.imdb.com/title/tt0926084/
    
    RUNTiME.............: 146 mins
    RELEASE.SiZE........: 6.56 GB  
    ViDEO.CODEC.........: AVC High@L4.1
    FRAME.RATE..........: 23.976 kbps
    VIDEO.BITRATE.......: 4916 Kbps   
    RESOLUTION..........: 1280 x 536
    AUDIO...............: DTS 48000Hz 6Ch @ 1510 kbps
    SUBTITLE............: RAW
    Show SS AWAS BWK



    DOWNLOAD LINKS @
    *** hidden content ***

    Code:
    download semua file. hapus *.rar kemudian join dengan HJSplit.
    kalo ada file yang gak bisa di download, PM aku za
    juragan AnthraX, part10 dan part 14 kok ga bisa di download knp yaa?? udah ane tunggu berhari2 masih ga bisa2, please donk tanggung bgt tinggal 2part aja..

  8. #4365

    Join Date
    Feb 2010
    Location
    jogja
    Posts
    24,899
    Thank(s)
    181/595,993
    Blog Entries
    5
    Rep Power
    832

    Default

    Top.Gun.1986.720p.BluRay.DTS.x264-ESiR

    Code:
    NAME.....................: Top Gun  (1986)
    GENRE....................: Action | Drama | Romance
    RATING...................: 6.6/10      86,159 votes
    http://www.imdb.com/title/tt0092099/
    
    RUNTiME.............: 109 mins
    RELEASE.SiZE........: 6.41 GB  
    ViDEO.CODEC.........: AVC High@L4.1
    FRAME.RATE..........: 23.976 kbps
    VIDEO.BITRATE.......: 6864 Kbps   
    RESOLUTION..........: 1280 x 536
    AUDIO...............: DTS 48000Hz 7Ch @ 1510 kbps
    SUBTITLE............: Embebbed English
    Show SS AWAS BWK








    DOWNLOAD LINKS @
    You must click 'Thank You' before you can see the data contained here.
    You do not have sufficient rights to see the hidden data contained here.


    Code:
    download semua file. hapus *.rar kemudian join dengan HJSplit.
    kalo ada file yang gak bisa di download, PM aku za
    Last edited by AnthraX; 23-10-2011 at 12:36 PM. Reason: reupload part 1

  9. Who Said Thanks:

    There are too many to display.

  10. #4366

    Join Date
    Feb 2010
    Location
    jogja
    Posts
    24,899
    Thank(s)
    2/595,993
    Blog Entries
    5
    Rep Power
    832

    Default

    Quote Originally Posted by jaguar View Post
    juragan AnthraX, part10 dan part 14 kok ga bisa di download knp yaa?? udah ane tunggu berhari2 masih ga bisa2, please donk tanggung bgt tinggal 2part aja..
    server 60 emang lom fix...
    tunggu aja besok mungkin dah beres lagi

    Quote Originally Posted by nightmare View Post
    bro..... mau menanyakan... sudah di-update kah yang part 2 u/ national treasure nya? hehehe..
    thanx yak.
    done
    Last edited by AnthraX; 12-04-2011 at 09:29 PM.

  11. Who Said Thanks:


  12. #4367

    Join Date
    Aug 2010
    Location
    FC Muhan Dojeon
    Posts
    2,377
    Thank(s)
    1/2,877
    Blog Entries
    1
    Rep Power
    6

    Default

    Quote Originally Posted by AnthraX View Post
    server 60 emang lom fix...
    tunggu aja besok mungkin dah beres lagi



    done
    udah bisa koq bang, saia udah DL sampe selesai and no problemo harpot-nya..

    btw, yg masalah kick-ass udah terpecahkan bang, saia baru tau ternyata pake torrent bisa benerin gitu, coba tau dari dulu

  13. Who Said Thanks:


  14. #4368

    Join Date
    Feb 2010
    Location
    jogja
    Posts
    24,899
    Thank(s)
    2/595,993
    Blog Entries
    5
    Rep Power
    832

    Default

    Quote Originally Posted by XcsNujabes View Post
    udah bisa koq bang, saia udah DL sampe selesai and no problemo harpot-nya..

    btw, yg masalah kick-ass udah terpecahkan bang, saia baru tau ternyata pake torrent bisa benerin gitu, coba tau dari dulu
    salah siapa dulu gak tanya

  15. Who Said Thanks:


  16. #4369

    Join Date
    Nov 2009
    Location
    ENJUKU
    Posts
    1,131
    Thank(s)
    2/33,007
    Blog Entries
    6
    Rep Power
    7

    Default

    50 First Dates 1080p (2004) by bro Inggo

    Harry.Potter.And.The.Deathly.Hallows.Part.1.720p.B luRay.x264-TWiZTED by bro Anthrax

    selamat sampai d kompi ane dan berjalan dengan lancar .. no problemo

  17. Who Said Thanks:


  18. #4370

    Join Date
    Aug 2009
    Location
    jakarta
    Posts
    58
    Thank(s)
    0/31
    Rep Power
    0

    Default

    gan mo mastiin aja,untuk District 9 720p emang belom ada yah??ane cari di index soalna ga nemu,hehehehe

Page 437 of 583 FirstFirst ... 337387427433434435436437438439440441447487537 ... LastLast

Bookmarks

Posting Permissions

  • You may not post new threads
  • You may not post replies
  • You may not post attachments
  • You may not edit your posts
  •  
Indowebster is proudly powered by PT. Gudang Data Indonesia