Page 542 of 583 FirstFirst ... 42442492532538539540541542543544545546552 ... LastLast
Results 5,411 to 5,420 of 5830

Thread: [Archive] HD Collection | Lokal ONLY | I
http://idws.in/18136

  1. #5411

    Join Date
    Dec 2010
    Location
    Jakarta
    Posts
    64
    Thank(s)
    143/927
    Rep Power
    0

    Default

    Bloodrayne The Third Reich 2010 1080p BluRay DTS-ACB

    Show Release Info

    Bloodrayne.The.Third.Reich.2010.1080p.BluRay.DTS-ACB

    Format...: Matroska at 15.4 Mbps
    Length...: 8.15 GiB for 1h 15mn 51s 723ms
    Video....: AVC at 13.6 Mbps
    Aspect...: 1920 x 1080 (1.778) at 25.000 fps
    Audio....: English DTS at 1 510 Kbps

    http://www.imdb.com/title/tt1153546/

    Rayne fights against the Nazis in Europe during World War II, encountering
    Ekart Brand, a Nazi leader whose target is to inject Adolf Hitler with
    Rayne's blood in an attempt to transform him into a dhampir and attain
    immortality.

    Show 550MB Maknyos

    You must click 'Thank You' before you can see the data contained here.
    You do not have sufficient rights to see the hidden data contained here.
    Happy Watching
    Enjoyy

    nb : ditunggu feedbacknya
    Last edited by belahketupat; 26-07-2011 at 09:28 PM. Reason: salah edit, post ulang

  2. Who Said Thanks:

    There are too many to display.

  3. #5412

    Join Date
    Dec 2010
    Location
    Medan
    Posts
    94
    Thank(s)
    4/11
    Rep Power
    0

    Default

    Quote Originally Posted by streams View Post
    10. Angels And Demons (2009) Extended.Cut.BluRay.1080p.x264.DTS-WiKi


    IDWS Download
    *** hidden content ***
    KK streams yang part 22 tolong reupload dong.. file not found.. >.<

  4. Who Said Thanks:


  5. #5413

    Join Date
    Dec 2010
    Location
    Medan
    Posts
    94
    Thank(s)
    6/11
    Rep Power
    0

    Default

    Quote Originally Posted by smarty View Post
    I Am Number Four (2011) 1080p BluRay


    Code:
    I Am Number Four (2011) 1080p BluRay x264-TWiZTED 
    
    iMDB URL........: http://www.imdb.com/title/tt1464540/
    iMDB RATiNG.....: 6.3/10 (14,020 votes)
    GENRE...........: Action | Sci-Fi | Thriller 
    PLOT............: John is an extraordinary teen, masking his true identity and passing as a typical high school student 
    		  to elude a deadly enemy seeking to destroy him. Three like him have already been killed ... he is Number Four. 
    
    ViDEO BiTRATE...: x264 9045 Kbps
    FRAME RATE......: 23.976 fps
    AUDiO ..........: English DTS 1509kbps
    RUNTiME.........: 1h 49m
    SOURCE..........: Region A BluRay 
    RESOLUTiON......: 1920x1040
    SUBTiTLES.......: EN/ES
    FilE SiZE.......: 7.64 GB
    Show SS awas BWK




    *** hidden content ***

    Code:
    1. Rename sesuai urutan (tanpa mengubah/menghapus extensi *.rar)
    2. Extract menggunakan Winrar (recomended)
    3. Jika terjadi error saat extract, gunakan menu repair pada Winrar (Recovery record added)
    enjooyyy...
    Yang baik hati boleh donk bagi-bagi ginian
    Kak yang part 2 ga bisa di download..
    Last edited by AnthraX; 30-07-2011 at 02:11 PM.

  6. Who Said Thanks:


  7. #5414

    Join Date
    Apr 2010
    Location
    medan
    Posts
    16
    Thank(s)
    3/9
    Rep Power
    0

    Default

    Quote Originally Posted by smarty View Post
    Unknown (2011) 1080p BluRay x264-TWiZTED


    Code:
    Unknown.2011.1080p.BluRay.x264-TWiZTED
    
    iMDB URL			 : http://www.imdb.com/title/tt1401152/ 
    iMDB RATiNG			 : 7.1/10 (19,266 votes)
    GENRE				 : Drama | Mystery | Thriller      
    PLOT				 : A man awakens from a coma, only to discover that someone has taken on his identity and that no one,     
    		  		   (not even his wife), believes him. With the help of a young woman, he sets out to prove who he is.  
    
    Format                           : Matroska
    File size                        : 9.84 GiB
    Duration                         : 1h 53mn
    Overall bit rate                 : 12.4 Mbps
    Writing application              : mkvmerge v4.1.1 ('Bouncin' Back') built on Jul  3 2010 22:54:08
    Writing library                  : libebml v1.0.0 + libmatroska v1.0
    
    Video
    ID                               : 1
    Format                           : AVC
    Format/Info                      : Advanced Video Codec
    Format profile                   : High@L4.1
    Format settings, CABAC           : Yes
    Format settings, ReFrames        : 5 frames
    Codec ID                         : V_MPEG4/ISO/AVC
    Duration                         : 1h 53mn
    Bit rate                         : 10.9 Mbps
    Width                            : 1 920 pixels
    Height                           : 800 pixels
    Display aspect ratio             : 2.40:1
    Frame rate                       : 23.976 fps
    Color space                      : YUV
    Chroma subsampling               : 4:2:0
    Bit depth                        : 8 bits
    Scan type                        : Progressive
    Bits/(Pixel*Frame)               : 0.297
    Stream size                      : 8.45 GiB (86%)
    Writing library                  : x264 core 115 r1995 c1e60b9
    Encoding settings                : cabac=1 / ref=5 / deblock=1:0:0 / analyse=0x3:0x133 / me=umh / subme=7 / psy=1 / psy_rd=1.00:0.00 / mixed_ref=1 / me_range=16 / chroma_me=1 / trellis=1 / 8x8dct=1 / cqm=0 / deadzone=21,11 / fast_pskip=0 / chroma_qp_offset=-2 / threads=18 / sliced_threads=0 / nr=0 / decimate=1 / interlaced=0 / bluray_compat=0 / constrained_intra=0 / bframes=3 / b_pyramid=2 / b_adapt=2 / b_bias=0 / direct=3 / weightb=1 / open_gop=0 / weightp=2 / keyint=250 / keyint_min=23 / scenecut=40 / intra_refresh=0 / rc_lookahead=50 / rc=2pass / mbtree=1 / bitrate=10930 / ratetol=1.0 / qcomp=0.60 / qpmin=0 / qpmax=69 / qpstep=4 / cplxblur=20.0 / qblur=0.5 / ip_ratio=1.40 / aq=1:1.00
    Language                         : English
    
    Audio
    ID                               : 2
    Format                           : DTS
    Format/Info                      : Digital Theater Systems
    Codec ID                         : A_DTS
    Duration                         : 1h 53mn
    Bit rate mode                    : Constant
    Bit rate                         : 1 510 Kbps
    Channel(s)                       : 6 channels
    Channel positions                : Front: L C R, Side: L R, LFE
    Sampling rate                    : 48.0 KHz
    Bit depth                        : 24 bits
    Compression mode                 : Lossy
    Stream size                      : 1.19 GiB (12%)
    Title                            : English DTS 1509kbps
    Language                         : English
    
    Text
    ID                               : 3
    Format                           : UTF-8
    Codec ID                         : S_TEXT/UTF8
    Codec ID/Info                    : UTF-8 Plain Text
    Title                            : English SDH
    Language                         : English
    Show SS awas BWK




    *** hidden content ***

    Code:
    1. Rename sesuai urutan (tanpa mengubah/menghapus extensi *.rar)
    2. Extract menggunakan Winrar (recomended)
    3. Jika terjadi error saat extract, gunakan menu repair pada Winrar (Recovery record added)
    enjooyyy...
    Yang baik hati boleh donk bagi-bagi ginian
    bos.. LAPOR... saya uda download semua
    tapi setelah dichecksum



    NB : uda dicoba repair yg crash. tapi yg part 4 sama 6 gk bisa direpair. malah jadi rebuild repair gitu. mksdnya gimana ya, thx
    Last edited by AnthraX; 30-07-2011 at 02:11 PM.

  8. Who Said Thanks:


  9. #5415

    Join Date
    Apr 2009
    Location
    medan oi..
    Posts
    312
    Thank(s)
    0/89
    Rep Power
    0

    Default

    lapor.. love birds bisa di download and maknyus...

  10. #5416

    Join Date
    Jul 2011
    Location
    dimana saja
    Posts
    1,260
    Thank(s)
    60/59,444
    Rep Power
    3

    Default

    Shelter.2010.LiMiTED.720p.BluRay.DTS.x264-ALLiANCE


    Show INFO

    Code:
    General
    Unique ID                        : 187096617375691443115446334103877467075 (0x8CC17F6F25FFE39D90533742CC8E3BC3)
    Complete name                    : alli-shelter-720p.mkv
    Format                           : Matroska
    File size                        : 4.35 GiB
    Duration                         : 1h 52mn
    Overall bit rate                 : 5 533 Kbps
    Encoded date                     : UTC 2010-07-27 20:06:27
    Writing application              : mkvmerge v3.2.0 ('Beginnings') built on Feb 12 2010 16:46:17
    Writing library                  : libebml v0.7.9 + libmatroska v0.8.1
    
    Video
    ID                               : 1
    Format                           : AVC
    Format/Info                      : Advanced Video Codec
    Format profile                   : High@L3.1
    Format settings, CABAC           : Yes
    Format settings, ReFrames        : 5 frames
    Codec ID                         : V_MPEG4/ISO/AVC
    Duration                         : 1h 52mn
    Bit rate                         : 4 025 Kbps
    Width                            : 1 280 pixels
    Height                           : 544 pixels
    Display aspect ratio             : 2.35:1
    Frame rate                       : 23.976 fps
    Color space                      : YUV
    Chroma subsampling               : 4:2:0
    Bit depth                        : 8 bits
    Scan type                        : Progressive
    Bits/(Pixel*Frame)               : 0.241
    Stream size                      : 3.08 GiB (71%)
    Writing library                  : x264 core 104 r1683 62997d6
    Encoding settings                : cabac=1 / ref=5 / deblock=1:0:0 / analyse=0x3:0x113 / me=umh / subme=7 / psy=1 / psy_rd=1.00:0.00 / mixed_ref=1 / 
    
    me_range=16 / chroma_me=1 / trellis=1 / 8x8dct=1 / cqm=0 / deadzone=21,11 / fast_pskip=0 / chroma_qp_offset=-2 / threads=12 / sliced_threads=0 / nr=0 / 
    
    decimate=1 / interlaced=0 / constrained_intra=0 / bframes=3 / b_pyramid=2 / b_adapt=1 / b_bias=0 / direct=1 / weightb=1 / open_gop=0 / weightp=2 / keyint=250 
    
    / keyint_min=23 / scenecut=40 / intra_refresh=0 / rc_lookahead=40 / rc=2pass / mbtree=1 / bitrate=4025 / ratetol=1.0 / qcomp=0.60 / qpmin=10 / qpmax=51 / 
    
    qpstep=4 / cplxblur=20.0 / qblur=0.5 / ip_ratio=1.40 / aq=1:1.00
    Language                         : English
    
    Audio
    ID                               : 2
    Format                           : DTS
    Format/Info                      : Digital Theater Systems
    Codec ID                         : A_DTS
    Duration                         : 1h 52mn
    Bit rate mode                    : Constant
    Bit rate                         : 1 510 Kbps
    Channel(s)                       : 6 channels
    Channel positions                : Front: L C R, Side: L R, LFE
    Sampling rate                    : 48.0 KHz
    Bit depth                        : 24 bits
    Compression mode                 : Lossy
    Stream size                      : 1.19 GiB (27%)



    You must click 'Thank You' before you can see the data contained here.
    You do not have sufficient rights to see the hidden data contained here.


    Code:
    * Download semua file dan join dengan HJSplit
    Last edited by Semplice; 28-09-2011 at 09:21 PM. Reason: reupload

  11. Who Said Thanks:

    There are too many to display.

  12. #5417

    Join Date
    Jun 2010
    Location
    Indonesia
    Posts
    4
    Thank(s)
    4/94
    Rep Power
    0

    Default

    Quote Originally Posted by smarty View Post
    Harry Potter And The Deathly Hallows: Part 1 (2010) 1080p BluRay


    Code:
    Harry Potter And The Deathly Hallows: Part 1 (2010) 1080p BluRay x264-TWiZTED
    
    RUNTiME........ 2h 26m
    ViDEO CODEC.... x264                                                                       
    ViDEO BiTRATE.. 9205 kbps
    RESOLUTiON..... 1920x800
    FRAMERATE...... 23.98
    AUDiO CODEC.... DTS 48000Hz
    AUDiO BiTRATE.. 1509 kbps
    FiLE SiZE...... 10.91 GB
    SUBTITLE....... None
    imdb........... http://www.imdb.com/title/tt0926084/
    *** hidden content ***

    Code:
    1. Rename sesuai urutan (tanpa mengubah/menghapus extensi *.rar)
    2. Extract menggunakan Winrar (recomended)
    3. Jika terjadi error saat extract, gunakan menu repair pada Winrar (Recovery record added)
    enjooyyy...
    Yang baik hati boleh donk bagi-bagi ginian

    Show BONUS

    Suka Koleksi Film??? Pake eXtreme Movie Manager Latest Version [Maknyos | MF]
    Best of Video Converter 2011(All FULL) + Comparison[MAKNYOS]
    Best of Video Editing 2011 = CyberLink PowerDirector Ultra64 Latest Version[MAKNYOS]
    All-in-one media player = ArcSoft TotalMedia Theatre Platinum [Maknyos|MF]
    Utk Pecinta/Guru Matematika = SchoolHouse Math Resource Studio [Maknyos|MF]
    Utk Pengguna Setia WinXP = Yamicsoft WinXP Manager Latest Version [Maknyos|MF]
    Kembalikan Data Hilang via Network??? Pake Restorer Ultimate Pro Network [Maknyos|MF]
    Mudahnya Membuat Icon Cantik dg Axialis IconWorkShop Latest Version [MF]
    NetBook Lambat??? Gunakan SysTweak Netbook Optimizer latest Version [Maknyos | MF]
    Remote Manager Super Canggih = NetSupport Manager last Version [MAKNYOS]
    Buat Lembar Soal&Jawaban/ujian/kuisioner Dg Schoolhouse Test 3.1.3.1[Maknyos]
    System Utilities TERLENGKAP = Spotmau PowerSuite | MAKNYOS
    Best of System Utilities 2011 = Advanced System Utilities 3.1.6 + Comparison[MAKNYOS]
    Best Of MP3 Player 2011 = MediaMonkey Gold+Comparison[MAKNYOS]
    Best of Audio Converter 2011(All FULL)+Comparison[MAKNYOS]
    Spyware Doctor with AntiVirus 2011 v8.0.0.623 + Serial [MAKNYOS]
    Animasikan Wajah Anda dg FantaMorph 4.2.6 Deluxe[MAKNYOS]
    Aplikasi Monitor Log dan Disk di Network untuk System Administrator[Maknyos]
    Webroot Antivirus With Spysweeper 2011 7.0.4 + Serial For 2043 Days[MAKNYOS]
    WebCam biasa bs jadi Sistem Pengawasan dg Motion dan Sound detection[MAKNYOS]
    3D-Doctor 4.0.20101105
    Gan, yg part 16 kok gak bs di-DL ya? Yg lain udah kelar, tinggal 1 itu aja....
    Last edited by AnthraX; 30-07-2011 at 02:12 PM.

  13. Who Said Thanks:


  14. #5418

    Join Date
    Aug 2008
    Location
    YOGYAKARTA
    Posts
    10,165
    Thank(s)
    1/48,149
    Blog Entries
    3
    Rep Power
    29

    Default

    Quote Originally Posted by inggo View Post
    Constantine 1080p (2005)
    part 6 gk bisa di download ??
    ..pengen punya usaha clothingan sendiri..

  15. Who Said Thanks:


  16. #5419

    Join Date
    May 2009
    Location
    indonesia
    Posts
    146
    Thank(s)
    157/4,811
    Rep Power
    0

    Default

    The Hangover 2009
    720p.x264
    4.37 GB





    Show Download Maknyos

    You must click 'Thank You' before you can see the data contained here.
    You do not have sufficient rights to see the hidden data contained here.


    Code:
    Join pake HJsplit.... 
    Sub udah nempel di film
    Boleh donk ijo2 nya
    Last edited by turkey88; 25-07-2011 at 12:56 PM.

  17. Who Said Thanks:

    There are too many to display.

  18. #5420

    Join Date
    May 2011
    Location
    jakarta
    Posts
    25
    Thank(s)
    0/2
    Rep Power
    0

    Default

    Cara ngehapus *.rar caranya gimana ?

    Quote Originally Posted by AnthraX View Post
    Code:
    download semua file. hapus *.rar kemudian join dengan HJSplit.
    kalo ada file yang gak bisa di download, PM aku za
    saya download film piranha 3D
    Filenya uda saya download tapi ga bisa di extract tulisannya filenya unknown format or damaged

Page 542 of 583 FirstFirst ... 42442492532538539540541542543544545546552 ... LastLast

Bookmarks

Posting Permissions

  • You may not post new threads
  • You may not post replies
  • You may not post attachments
  • You may not edit your posts
  •  
Indowebster is proudly powered by PT. Gudang Data Indonesia