Page 564 of 583 FirstFirst ... 64464514554560561562563564565566567568574 ... LastLast
Results 5,631 to 5,640 of 5830

Thread: [Archive] HD Collection | Lokal ONLY | I
http://idws.in/18136

  1. #5631

    Join Date
    Apr 2009
    Location
    Earth
    Posts
    28,628
    Thank(s)
    0/154,339
    Blog Entries
    2
    Rep Power
    47

    Default

    Quote Originally Posted by Thinl View Post
    Devil 2010 720p BRRip x264-HDLiTE
    Quote Originally Posted by Thinl View Post
    Gone in Sixty Seconds [720p] [2000].mkv
    uda di reupload dari awal, happy download
    Last edited by Thinl; 08-08-2011 at 05:58 AM.

  2. #5632

    Join Date
    Jul 2011
    Location
    dimana saja
    Posts
    1,262
    Thank(s)
    118/61,203
    Rep Power
    4

    Default

    The.Conspirator.2010.720p.BluRay.X264-AMIABLE


    Show INFO

    Code:
    General
    Complete name                    : The.Conspirator.2010.720p.BluRay.X264-AMIABLE.mkv
    Format                           : Matroska
    File size                        : 5.46 GiB
    Duration                         : 2h 2mn
    Overall bit rate                 : 6 397 Kbps
    Writing application              : x264.exe
    Writing library                  : mkv2rls v1.4 (date: 2011 mar 29)
    
    Video
    ID                               : 1
    Format                           : AVC
    Format/Info                      : Advanced Video Codec
    Format profile                   : High@L4.1
    Format settings, CABAC           : Yes
    Format settings, ReFrames        : 5 frames
    Codec ID                         : V_MPEG4/ISO/AVC
    Duration                         : 2h 2mn
    Bit rate                         : 4 888 Kbps
    Width                            : 1 280 pixels
    Height                           : 536 pixels
    Display aspect ratio             : 2.35:1
    Frame rate                       : 23.976 fps
    Color space                      : YUV
    Chroma subsampling               : 4:2:0
    Bit depth                        : 8 bits
    Scan type                        : Progressive
    Bits/(Pixel*Frame)               : 0.297
    Stream size                      : 4.06 GiB (74%)
    Writing library                  : x264 core 116 r2044 392e762
    Encoding settings                : cabac=1 / ref=5 / deblock=1:0:0 / analyse=0x3:0x113 / me=umh / subme=8 / psy=1 / psy_rd=1.00:0.00 / mixed_ref=1 / me_range=16 / chroma_me=1 / trellis=1 / 8x8dct=1 / cqm=0 / deadzone=21,11 / fast_pskip=1 / chroma_qp_offset=-2 / threads=12 / sliced_threads=0 / nr=0 / decimate=1 / interlaced=0 / bluray_compat=0 / constrained_intra=0 / bframes=3 / b_pyramid=2 / b_adapt=2 / b_bias=0 / direct=3 / weightb=1 / open_gop=0 / weightp=2 / keyint=240 / keyint_min=24 / scenecut=40 / intra_refresh=0 / rc_lookahead=50 / rc=2pass / mbtree=1 / bitrate=4888 / ratetol=1.0 / qcomp=0.60 / qpmin=0 / qpmax=69 / qpstep=4 / cplxblur=20.0 / qblur=0.5 / ip_ratio=1.40 / aq=1:1.00
    Language                         : English
    
    Audio
    ID                               : 2
    Format                           : DTS
    Format/Info                      : Digital Theater Systems
    Codec ID                         : A_DTS
    Duration                         : 2h 2mn
    Bit rate mode                    : Constant
    Bit rate                         : 1 510 Kbps
    Channel(s)                       : 6 channels
    Channel positions                : Front: L C R, Side: L R, LFE
    Sampling rate                    : 48.0 KHz
    Bit depth                        : 24 bits
    Compression mode                 : Lossy
    Stream size                      : 1.29 GiB (24%)
    Language                         : English
    
    Text
    ID                               : 3
    Format                           : UTF-8
    Codec ID                         : S_TEXT/UTF8
    Codec ID/Info                    : UTF-8 Plain Text
    Language                         : English
    
    Menu
    00:00:00.000                     : en:00:00:00.000
    00:07:27.072                     : en:00:07:27.072
    00:16:36.787                     : en:00:16:36.787
    00:24:01.732                     : en:00:24:01.732
    00:31:07.449                     : en:00:31:07.449
    00:38:44.948                     : en:00:38:44.948
    00:47:50.993                     : en:00:47:50.993
    00:54:34.605                     : en:00:54:34.605
    01:01:54.294                     : en:01:01:54.294
    01:10:29.308                     : en:01:10:29.308
    01:17:39.488                     : en:01:17:39.488
    01:27:12.477                     : en:01:27:12.477
    01:33:57.966                     : en:01:33:57.966
    01:41:35.715                     : en:01:41:35.715
    01:48:22.871                     : en:01:48:22.871
    01:53:45.694                     : en:01:53:45.694


    Show UNDUH IDWS 500 MBPART

    Code:
    * Download semua file dan join dengan HJSplit

    You must click 'Thank You' before you can see the data contained here.
    You do not have sufficient rights to see the hidden data contained here.



    Show UNDUH IDWS 100 MBPART

    Code:
    * Download semua file dan extract dengan Winrar.
    * Dilengkapi Recovery Record

    You must click 'Thank You' before you can see the data contained here.
    You do not have sufficient rights to see the hidden data contained here.



    Code:
    * Disarankan download dari link IDWS 500 MB/PART
    * Untuk link IDWS 100 MB/PART tidak ada reupload, karena file partnya sudah dihapus.
    Last edited by Semplice; 21-09-2011 at 05:54 PM. Reason: reupload

  3. Who Said Thanks:

    There are too many to display.

  4. #5633

    Join Date
    Mar 2009
    Location
    Indonesia
    Posts
    50
    Thank(s)
    2/141
    Rep Power
    0

    Default

    [QUOTE=AnthraX;9476483][CENTER]Quantum.of.Solace.2008.720p.BluRay.DTS.x264-ESiR

    Tolong dong diupload ulang yang part 4 nya tanggung nih tinggal part 4 aja yang belum didownload, udah semingguann ini part 4 nya maintenence terus

    Thanks
    gogle

  5. Who Said Thanks:


  6. #5634

    Join Date
    Apr 2008
    Location
    Dirumah
    Posts
    1,764
    Thank(s)
    2/2,463
    Rep Power
    9

    Default

    Quote Originally Posted by Thinl View Post
    Priest.2011.BluRay.720p.DTS.x264-CHD.mkv
    Sudah download semua lancar jaya di play

  7. Who Said Thanks:


  8. #5635

    Join Date
    Jul 2011
    Location
    dimana saja
    Posts
    1,262
    Thank(s)
    293/61,203
    Rep Power
    4

    Default

    Scream.4.2011.720p.BluRay.x264-CROSSBOW


    Show INFO

    Code:
    General
    Unique ID                        : 176085508419827615959770732668437347329 (0x8478D5D9180851D19289AC20FBFB3C01)
    Complete name                    : scream.4.720p.bluray.x264-crossbow.mkv
    Format                           : Matroska
    File size                        : 4.37 GiB
    Duration                         : 1h 50mn
    Overall bit rate                 : 5 648 Kbps
    Encoded date                     : UTC 2011-08-06 08:41:18
    Writing application              : mkvmerge v4.6.0 ('Still Crazy After All These Years') creado el Mar 10 2011 02:50:32
    Writing library                  : libebml v1.2.0 + libmatroska v1.1.0
    
    Video
    ID                               : 1
    Format                           : AVC
    Format/Info                      : Advanced Video Codec
    Format profile                   : High@L4.1
    Format settings, CABAC           : Yes
    Format settings, ReFrames        : 5 frames
    Codec ID                         : V_MPEG4/ISO/AVC
    Duration                         : 1h 50mn
    Bit rate                         : 5 199 Kbps
    Width                            : 1 280 pixels
    Height                           : 720 pixels
    Display aspect ratio             : 16:9
    Frame rate                       : 23.976 fps
    Color space                      : YUV
    Chroma subsampling               : 4:2:0
    Bit depth                        : 8 bits
    Scan type                        : Progressive
    Bits/(Pixel*Frame)               : 0.235
    Stream size                      : 3.94 GiB (90%)
    Writing library                  : x264 core 116 r2044 392e762
    Encoding settings                : cabac=1 / ref=5 / deblock=1:0:0 / analyse=0x3:0x113 / me=umh / subme=8 / psy=1 / psy_rd=1.00:0.00 / mixed_ref=1 / 
    
    me_range=16 / chroma_me=1 / trellis=1 / 8x8dct=1 / cqm=0 / deadzone=21,11 / fast_pskip=1 / chroma_qp_offset=-2 / threads=12 / sliced_threads=0 / nr=0 / 
    
    decimate=1 / interlaced=0 / bluray_compat=0 / constrained_intra=0 / bframes=3 / b_pyramid=2 / b_adapt=2 / b_bias=0 / direct=3 / weightb=1 / open_gop=0 / 
    
    weightp=2 / keyint=250 / keyint_min=23 / scenecut=40 / intra_refresh=0 / rc_lookahead=50 / rc=2pass / mbtree=1 / bitrate=5199 / ratetol=1.0 / qcomp=0.60 / 
    
    qpmin=0 / qpmax=69 / qpstep=4 / cplxblur=20.0 / qblur=0.5 / ip_ratio=1.40 / aq=1:1.00
    Language                         : English
    
    Audio
    ID                               : 2
    Format                           : AC-3
    Format/Info                      : Audio Coding 3
    Mode extension                   : CM (complete main)
    Codec ID                         : A_AC3
    Duration                         : 1h 50mn
    Bit rate mode                    : Constant
    Bit rate                         : 448 Kbps
    Channel(s)                       : 6 channels
    Channel positions                : Front: L C R, Side: L R, LFE
    Sampling rate                    : 48.0 KHz
    Bit depth                        : 16 bits
    Compression mode                 : Lossy
    Stream size                      : 355 MiB (8%)
    Language                         : English
    
    Menu
    00:00:00.000                     : en:00:00:00.000
    00:09:41.414                     : en:00:09:41.414
    00:20:34.191                     : en:00:20:34.191
    00:31:15.916                     : en:00:31:15.916
    00:39:58.396                     : en:00:39:58.396
    00:48:29.782                     : en:00:48:29.782
    00:57:41.958                     : en:00:57:41.958
    01:06:37.744                     : en:01:06:37.744
    01:15:48.210                     : en:01:15:48.210
    01:24:44.288                     : en:01:24:44.288
    01:34:07.100                     : en:01:34:07.100
    01:43:25.574                     : en:01:43:25.574


    Show UNDUH IDWS 500 MBPART

    Code:
    * Download semua file dan join dengan HJSplit

    You must click 'Thank You' before you can see the data contained here.
    You do not have sufficient rights to see the hidden data contained here.



    Show UNDUH IDWS 100 MBPART

    Code:
    * Download semua file dan extract dengan Winrar.
    * Dilengkapi Recovery Record

    You must click 'Thank You' before you can see the data contained here.
    You do not have sufficient rights to see the hidden data contained here.



    Code:
    * Disarankan download dari link IDWS 500 MB/PART
    * Untuk link IDWS 100 MB/PART tidak ada reupload, jika ada masalah file apapun.
    Last edited by Semplice; 20-09-2011 at 05:13 PM. Reason: reupload

  9. Who Said Thanks:

    There are too many to display.

  10. #5636

    Join Date
    Nov 2010
    Location
    Balikpapan
    Posts
    47
    Thank(s)
    2/32
    Rep Power
    0

    Default

    Twilight (2008) part 12 404 Not Found mohon donk gan di reupload...thks.

  11. Who Said Thanks:


  12. #5637

    Join Date
    Nov 2010
    Location
    Balikpapan
    Posts
    47
    Thank(s)
    3/32
    Rep Power
    0

    Default

    Bos part05, 16, 18, 20 dan 21 gak bisa di download tombol downloadnya berubah menjadi STORAGE MAINTENANCE, BACK LATER... tolong donk yg lain udah di download sisa 5 part yg gak bisa,,,thks bantuannya

    Quote Originally Posted by Thinl View Post
    itu part apaan dah
    Harry Potter And The Deathly Hallows: Part 1 (2010) 1080p BluRay,,,,terima kasih gan....

  13. Who Said Thanks:


  14. #5638

    Join Date
    Apr 2009
    Location
    Earth
    Posts
    28,628
    Thank(s)
    2/154,339
    Blog Entries
    2
    Rep Power
    47

    Default

    Quote Originally Posted by rickzalvine View Post
    Twilight (2008) part 12 404 Not Found mohon donk gan di reupload...thks.
    part nya uda di delete, jadi ntar di reupload dari awal lagi aja, tapi sekarang idws lagi gak bisa upload
    Quote Originally Posted by rickzalvine View Post
    Bos part05, 16, 18, 20 dan 21 gak bisa di download tombol downloadnya berubah menjadi STORAGE MAINTENANCE, BACK LATER... tolong donk yg lain udah di download sisa 5 part yg gak bisa,,,thks bantuannya



    Harry Potter And The Deathly Hallows: Part 1 (2010) 1080p BluRay,,,,terima kasih gan....
    klo bisa jangan double post ya kedepannya
    kayaknya harus hubungi orangnya langsung yang upload, tapi sepertinya sekarang lagi gak online orangnya

  15. Who Said Thanks:


  16. #5639

    Join Date
    Jul 2011
    Location
    semarang
    Posts
    9
    Thank(s)
    3/3
    Rep Power
    0

    Default

    X-Men Origins Wolverine 2009 BluRay.1080p.x264.DTS-WiKi nya yang part 2 kok error ya??

  17. Who Said Thanks:


  18. #5640

    Join Date
    Feb 2009
    Location
    Pontianak/JKT
    Posts
    50
    Thank(s)
    11/17
    Rep Power
    0

    Default

    Quote Originally Posted by smarty View Post
    The Fighter (2010) 720p BluRay


    Code:
    presents: The Fighter (2010) 720p BluRay x264-REFiNED
    
    http://www.imdb.com/title/tt0964517/ 
    
    RATiNG .....: 8.1/10 (32,688 votes)
    ViDEO ......: 1280 * 536 @ 6610 kbps
    AUDiO ......: 1509 kbps DTS 
    RUNTiME ....: 115m39s
    SiZE .......: 6.718 mb
    SUBTiTLES ..: English
    *** hidden content ***

    Enjoy...

    Show BONUS

    Suka Koleksi Film??? Pake eXtreme Movie Manager Latest Version [Maknyos | MF]
    Best of Video Converter 2011(All FULL) + Comparison[MAKNYOS]
    Best of Video Editing 2011 = CyberLink PowerDirector Ultra64 Latest Version[MAKNYOS]
    All-in-one media player = ArcSoft TotalMedia Theatre Platinum [Maknyos|MF]
    Utk Pecinta/Guru Matematika = SchoolHouse Math Resource Studio [Maknyos|MF]
    Utk Pengguna Setia WinXP = Yamicsoft WinXP Manager Latest Version [Maknyos|MF]
    Kembalikan Data Hilang via Network??? Pake Restorer Ultimate Pro Network [Maknyos|MF]
    Mudahnya Membuat Icon Cantik dg Axialis IconWorkShop Latest Version [MF]
    NetBook Lambat??? Gunakan SysTweak Netbook Optimizer latest Version [Maknyos | MF]
    Remote Manager Super Canggih = NetSupport Manager last Version [MAKNYOS]
    Buat Lembar Soal&Jawaban/ujian/kuisioner Dg Schoolhouse Test 3.1.3.1[Maknyos]
    System Utilities TERLENGKAP = Spotmau PowerSuite | MAKNYOS
    Best of System Utilities 2011 = Advanced System Utilities 3.1.6 + Comparison[MAKNYOS]
    Best Of MP3 Player 2011 = MediaMonkey Gold+Comparison[MAKNYOS]
    Best of Audio Converter 2011(All FULL)+Comparison[MAKNYOS]
    Spyware Doctor with AntiVirus 2011 v8.0.0.623 + Serial [MAKNYOS]
    Animasikan Wajah Anda dg FantaMorph 4.2.6 Deluxe[MAKNYOS]
    Aplikasi Monitor Log dan Disk di Network untuk System Administrator[Maknyos]
    Webroot Antivirus With Spysweeper 2011 7.0.4 + Serial For 2043 Days[MAKNYOS]
    WebCam biasa bs jadi Sistem Pengawasan dg Motion dan Sound detection[MAKNYOS]
    3D-Doctor 4.0.20101105
    Konfirmasi ..............part 7 errorr

Page 564 of 583 FirstFirst ... 64464514554560561562563564565566567568574 ... LastLast

Bookmarks

Posting Permissions

  • You may not post new threads
  • You may not post replies
  • You may not post attachments
  • You may not edit your posts
  •  
Indowebster is proudly powered by PT. Gudang Data Indonesia