Page 565 of 583 FirstFirst ... 65465515555561562563564565566567568569575 ... LastLast
Results 5,641 to 5,650 of 5830

Thread: [Archive] HD Collection | Lokal ONLY | I
http://idws.in/18136

  1. #5641

    Join Date
    Apr 2009
    Location
    Earth
    Posts
    28,211
    Thank(s)
    2/149,252
    Blog Entries
    2
    Rep Power
    41

    Default

    Quote Originally Posted by Thinl View Post
    The Twilight Saga 3 - Eclipse [2010] [1080p]
    uda di reupload dari awal, per part 250MB @IDWS

  2. Who Said Thanks:


  3. #5642

    Join Date
    Sep 2010
    Location
    In your iOS
    Posts
    554
    Thank(s)
    2/32
    Rep Power
    4

    Default

    gan LOTR Two Tower- Extended Edition yg part 29, 30 kok not found ya?

  4. Who Said Thanks:


  5. #5643

    Join Date
    May 2009
    Location
    West Java
    Posts
    1,050
    Thank(s)
    27/138,415
    Rep Power
    5

    Default




    Show Information

    Code:
    IMDB: http://www.imdb.com/title/tt1219289/
    Release Title: Limitless 2011 Unrated 1080p MKV x264 AC3 DTS NL Subs DMT
    Director Neil Burger
    
    Cast
    Bradley Cooper...Eddie Morra
    Robert De Niro...Carl Van Loon
    Abbie Cornish...Lindy
    Anna Friel...Mellisa
    
    Genre: Mystery,Sci-Fi,Thriller
    
    General
          Format : Matroska
          File size : 8.42 GiB
          Duration : 1h 45mn
          Overall bit rate : 11.4 Mbps
          Encoded date : UTC 2011-07-03 01:29:47
          Writing application : mkvmerge v2.3.0 ('Freak U') built on Sep  8 2008 18:32:16
          Writing library : libebml v0.7.7 + libmatroska v0.8.1
       Video #1
          ID : 1
          Format : AVC
          Format/Info : Advanced Video Codec
          Format profile : High@L4.1
          Format settings, CABAC : Yes
          Format settings, ReFrames : 5 frames
          Muxing mode : Container profile=Unknown@4.1
          Codec ID : V_MPEG4/ISO/AVC
          Duration : 1h 45mn
          Bit rate : 9 044 Kbps
          Nominal bit rate : 9 271 Kbps
          Width : 1 920 pixels
          Height : 800 pixels
          Display aspect ratio : 2.40:1
          Frame rate : 23.976 fps
          Resolution : 24 bits
          Colorimetry : 4:2:0
          Scan type : Progressive
          Bits/(Pixel*Frame) : 0.246
          Stream size : 6.66 GiB (79%)
          Writing library : x264 core 115 r2008 4c552d8
          Encoding settings : cabac=1 / ref=5 / deblock=1:0:0 / analyse=0x3:0x133 / me=umh / subme=7 / psy=1 / psy_rd=1.00:0.00 / mixed_ref=1 / me_range=16 / chroma_me=1 / trellis=1 / 8x8dct=1 / cqm=0 / deadzone=21,11 / fast_pskip=0 / chroma_qp_offset=-2 / threads=12 / sliced_threads=0 / nr=0 / decimate=1 / interlaced=0 / bluray_compat=0 / constrained_intra=0 / bframes=3 / b_pyramid=2 / b_adapt=2 / b_bias=0 / direct=3 / weightb=1 / open_gop=0 / weightp=2 / keyint=250 / keyint_min=23 / scenecut=40 / intra_refresh=0 / rc_lookahead=50 / rc=2pass / mbtree=1 / bitrate=9271 / ratetol=1.0 / qcomp=0.60 / qpmin=0 / qpmax=69 / qpstep=4 / cplxblur=20.0 / qblur=0.5 / ip_ratio=1.40 / aq=1:1.00
          Language : English
       Audio #2
          ID : 2
          Format : DTS
          Format/Info : Digital Theater Systems
          Codec ID : A_DTS
          Duration : 1h 45mn
          Bit rate mode : Constant
          Bit rate : 1 510 Kbps
          Channel(s) : 6 channels
          Channel positions : Front: L C R, Surround: L R, LFE
          Sampling rate : 48.0 KHz
          Resolution : 24 bits
          Video delay : 11ms
          Stream size : 1.11 GiB (13%)
          Title : English DTS 5.1
          Language : English
       Audio #3
          ID : 3
          Format : AC-3
          Format/Info : Audio Coding 3
          Codec ID : A_AC3
          Duration : 1h 45mn
          Bit rate mode : Constant
          Bit rate : 640 Kbps
          Channel(s) : 6 channels
          Channel positions : Front: L C R, Surround: L R, LFE
          Sampling rate : 48.0 KHz
          Stream size : 483 MiB (6%)
          Title : English DD5.1
          Language : English
       Text #4
          ID : 4
          Format : UTF-8
          Codec ID : S_TEXT/UTF8
          Codec ID/Info : UTF-8 Plain Text
          Title : Nederlands SRT
          Language : Dutch


    Show Link Download

    Show Maknyos

    Code:
    http://www.maknyos.com/epyj55prfnda/Limitless.2011.Unrated.1080p.MKV.DarkdiabloZ.part01-maknyos.com.rar.html
    http://www.maknyos.com/8578plny5j3y/Limitless.2011.Unrated.1080p.MKV.DarkdiabloZ.part02-maknyos.com.rar.html
    http://www.maknyos.com/go49itt20hwg/Limitless.2011.Unrated.1080p.MKV.DarkdiabloZ.part03-maknyos.com.rar.html
    http://www.maknyos.com/qjex93xp4uqj/Limitless.2011.Unrated.1080p.MKV.DarkdiabloZ.part04-maknyos.com.rar.html
    http://www.maknyos.com/tojumcsiypz5/Limitless.2011.Unrated.1080p.MKV.DarkdiabloZ.part05-maknyos.com.rar.html
    http://www.maknyos.com/5gk10y56g1p3/Limitless.2011.Unrated.1080p.MKV.DarkdiabloZ.part06-maknyos.com.rar.html
    http://www.maknyos.com/o47cj9oyogt3/Limitless.2011.Unrated.1080p.MKV.DarkdiabloZ.part07-maknyos.com.rar.html
    http://www.maknyos.com/idbi0v2q0l6w/Limitless.2011.Unrated.1080p.MKV.DarkdiabloZ.part08-maknyos.com.rar.html
    http://www.maknyos.com/tzdfaam554he/Limitless.2011.Unrated.1080p.MKV.DarkdiabloZ.part09-maknyos.com.rar.html
    http://www.maknyos.com/obojz064qlt9/Limitless.2011.Unrated.1080p.MKV.DarkdiabloZ.part10-maknyos.com.rar.html
    http://www.maknyos.com/0ywlw38123mc/Limitless.2011.Unrated.1080p.MKV.DarkdiabloZ.part11-maknyos.com.rar.html
    http://www.maknyos.com/cgszbezjzd78/Limitless.2011.Unrated.1080p.MKV.DarkdiabloZ.part12-maknyos.com.rar.html
    http://www.maknyos.com/ug4le51frrk0/Limitless.2011.Unrated.1080p.MKV.DarkdiabloZ.part13-maknyos.com.rar.html



    Show Password

    DarkdiabloZ

  6. #5644

    Join Date
    May 2009
    Location
    West Java
    Posts
    1,050
    Thank(s)
    17/138,415
    Rep Power
    5

    Default



    Show Information

    Code:
    IMDB: http://www.imdb.com/title/tt0945513/
    Release Title: Source Code 2011 1080p Bluray x264-CHD
    Director: Duncan Jones
    Writer: Ben Ripley
    
    Cast
    Jake Gyllenhaal     ...Colter Stevens
    Michelle Monaghan ...Christina Warren
    Vera Farmiga ...Colleen Goodwin
    Jeffrey Wright ...Dr. Rutledge
    Michael Arden ...Derek Frost
    
    Genre: Mystery,Sci-Fi,Thriller
    
       General
          Format : Matroska
          File size : 10.00 GiB
          Duration : 1h 33mn
          Overall bit rate : 15.4 Mbps
          Encoded date : UTC 2011-07-16 01:29:15
          Writing application : mkvmerge v3.2.0 ('Beginnings') ??? Feb 12 2010 16:46:17
          Writing library : libebml v0.7.9 + libmatroska v0.8.1
       Video #1
          ID : 1
          Format : AVC
          Format/Info : Advanced Video Codec
          Format profile : High@L4.1
          Format settings, CABAC : Yes
          Format settings, ReFrames : 4 frames
          Muxing mode : Container profile=Unknown@4.1
          Codec ID : V_MPEG4/ISO/AVC
          Duration : 1h 33mn
          Bit rate : 13.5 Mbps
          Nominal bit rate : 13.9 Mbps
          Width : 1 920 pixels
          Height : 1 080 pixels
          Display aspect ratio : 16:9
          Frame rate : 23.976 fps
          Resolution : 24 bits
          Colorimetry : 4:2:0
          Scan type : Progressive
          Bits/(Pixel*Frame) : 0.272
          Stream size : 8.81 GiB (88%)
          Title : Source.code.2011
          Writing library : x264 core 114 r1924 08d04a4
          Encoding settings : cabac=1 / ref=4 / deblock=1:-3:-3 / analyse=0x3:0x113 / me=umh / subme=10 / psy=1 / psy_rd=1.05:0.10 / mixed_ref=1 / me_range=48 / chroma_me=1 / trellis=2 / 8x8dct=1 / cqm=2 / deadzone=21,11 / fast_pskip=0 / chroma_qp_offset=-2 / threads=12 / sliced_threads=0 / nr=0 / decimate=1 / interlaced=0 / constrained_intra=0 / bframes=6 / b_pyramid=2 / b_adapt=2 / b_bias=0 / direct=3 / weightb=1 / open_gop=0 / weightp=2 / keyint=250 / keyint_min=23 / scenecut=40 / intra_refresh=0 / rc_lookahead=60 / rc=2pass / mbtree=1 / bitrate=13850 / ratetol=1.0 / qcomp=0.60 / qpmin=1 / qpmax=63 / qpstep=4 / cplxblur=20.0 / qblur=0.5 / vbv_maxrate=40000 / vbv_bufsize=40000 / nal_hrd=none / ip_ratio=1.40 / aq=2:0.80
          Language : English
       Audio #2
          ID : 2
          Format : DTS
          Format/Info : Digital Theater Systems
          Codec ID : A_DTS
          Duration : 1h 33mn
          Bit rate mode : Constant
          Bit rate : 1 510 Kbps
          Channel(s) : 6 channels
          Channel positions : Front: L C R, Surround: L R, LFE
          Sampling rate : 48.0 KHz
          Resolution : 24 bits
          Stream size : 1 007 MiB (10%)
          Title : DTS-CORE 1536K
          Language : English


    Show Link Download

    Show Maknyos

    Code:
    http://www.maknyos.com/jflz4ufviycu/Source.Code.1080p.DarkdiabloZ.part01-maknyos.com.rar.html
    http://www.maknyos.com/ysf72fo8cv8r/Source.Code.1080p.DarkdiabloZ.part02-maknyos.com.rar.html
    http://www.maknyos.com/px4a3cznwmow/Source.Code.1080p.DarkdiabloZ.part03-maknyos.com.rar.html
    http://www.maknyos.com/r2x4iipixx9y/Source.Code.1080p.DarkdiabloZ.part04-maknyos.com.rar.html
    http://www.maknyos.com/izz3s0ggbgmj/Source.Code.1080p.DarkdiabloZ.part05-maknyos.com.rar.html
    http://www.maknyos.com/s7fex2rlixyy/Source.Code.1080p.DarkdiabloZ.part06-maknyos.com.rar.html
    http://www.maknyos.com/3o6uhaqjfb0e/Source.Code.1080p.DarkdiabloZ.part07-maknyos.com.rar.html
    http://www.maknyos.com/vccwc0tpvfyu/Source.Code.1080p.DarkdiabloZ.part08-maknyos.com.rar.html
    http://www.maknyos.com/y4yo17yok5z4/Source.Code.1080p.DarkdiabloZ.part09-maknyos.com.rar.html
    http://www.maknyos.com/ho3y6xsyz4yj/Source.Code.1080p.DarkdiabloZ.part10-maknyos.com.rar.html
    http://www.maknyos.com/bc1kned1roqb/Source.Code.1080p.DarkdiabloZ.part11-maknyos.com.rar.html
    http://www.maknyos.com/6rp8820rodk1/Source.Code.1080p.DarkdiabloZ.part12-maknyos.com.rar.html
    http://www.maknyos.com/i3uofmr88ufs/Source.Code.1080p.DarkdiabloZ.part13-maknyos.com.rar.html
    http://www.maknyos.com/m7caxmvcdd9a/Source.Code.1080p.DarkdiabloZ.part14-maknyos.com.rar.html
    http://www.maknyos.com/0f5vi66u32ao/Source.Code.1080p.DarkdiabloZ.part15-maknyos.com.rar.html
    http://www.maknyos.com/qz6k4xryr0ch/Source.Code.1080p.DarkdiabloZ.part16-maknyos.com.rar.html



    Show Password

    DarkdiabloZ

  7. #5645

    Join Date
    May 2009
    Location
    West Java
    Posts
    1,050
    Thank(s)
    15/138,415
    Rep Power
    5

    Default




    Show Information
    Code:
    IMDB: http://www.imdb.com/title/tt1403865/
    Release Title: True Grit 2011 BluRay 1080p DTS x264-CHD
    Director: Ethan Coen, Joel Coen
    
    Cast
    Jeff Bridges ... Rooster Cogburn
    Hailee Steinfeld ... Mattie Ross
    Matt Damon ... LaBoeuf
    
    Genre: Adventure, Drama, Western
    
    General
          Format : Matroska
          File size : 10.9 GiB
          Duration : 1h 50mn
          Overall bit rate : 14.1 Mbps
          Encoded date : UTC 2011-05-24 05:38:03
          Writing application : mkvmerge v3.2.0 ('Beginnings') ??? Feb 12 2010 16:46:17
          Writing library : libebml v0.7.9 + libmatroska v0.8.1
       Video #1
          ID : 1
          Format : AVC
          Format/Info : Advanced Video Codec
          Format profile : High@L4.1
          Format settings, CABAC : Yes
          Format settings, ReFrames : 5 frames
          Muxing mode : Container profile=Unknown@4.1
          Codec ID : V_MPEG4/ISO/AVC
          Duration : 1h 50mn
          Bit rate : 12.3 Mbps
          Nominal bit rate : 12.6 Mbps
          Width : 1 920 pixels
          Height : 816 pixels
          Display aspect ratio : 2.35:1
          Frame rate : 23.976 fps
          Resolution : 24 bits
          Colorimetry : 4:2:0
          Scan type : Progressive
          Bits/(Pixel*Frame) : 0.328
          Stream size : 9.48 GiB (87%)
          Title : True.Grit.2011
          Writing library : x264 core 114 r1924 08d04a4
          Encoding settings : cabac=1 / ref=5 / deblock=1:-3:-3 / analyse=0x3:0x113 / me=umh / subme=10 / psy=1 / psy_rd=1.05:0.10 / mixed_ref=1 / me_range=48 / chroma_me=1 / trellis=2 / 8x8dct=1 / cqm=2 / deadzone=21,11 / fast_pskip=0 / chroma_qp_offset=-2 / threads=12 / sliced_threads=0 / nr=0 / decimate=1 / interlaced=0 / constrained_intra=0 / bframes=6 / b_pyramid=2 / b_adapt=2 / b_bias=0 / direct=3 / weightb=1 / open_gop=0 / weightp=2 / keyint=250 / keyint_min=23 / scenecut=40 / intra_refresh=0 / rc_lookahead=60 / rc=2pass / mbtree=1 / bitrate=12598 / ratetol=1.0 / qcomp=0.70 / qpmin=1 / qpmax=63 / qpstep=4 / cplxblur=20.0 / qblur=0.5 / vbv_maxrate=40000 / vbv_bufsize=40000 / nal_hrd=none / ip_ratio=1.40 / aq=2:0.80
          Language : English
       Audio #2
          ID : 2
          Format : DTS
          Format/Info : Digital Theater Systems
          Codec ID : A_DTS
          Duration : 1h 50mn
          Bit rate mode : Constant
          Bit rate : 1 510 Kbps
          Channel(s) : 6 channels
          Channel positions : Front: L C R, Surround: L R, LFE
          Sampling rate : 48.0 KHz
          Resolution : 24 bits
          Stream size : 1.16 GiB (11%)
          Title : DTS-CORE 1536K
          Language : English




    Show Link Download

    Show Maknyos

    Code:
    http://www.maknyos.com/cye38bs0u3ba/True.Grit.1080p.DarkdiabloZ.part01-maknyos.com.rar.html
    http://www.maknyos.com/pg3c4ldng37h/True.Grit.1080p.DarkdiabloZ.part02-maknyos.com.rar.html
    http://www.maknyos.com/7oudgmpq3t6a/True.Grit.1080p.DarkdiabloZ.part03-maknyos.com.rar.html
    http://www.maknyos.com/cfej4vx0rci9/True.Grit.1080p.DarkdiabloZ.part04-maknyos.com.rar.html
    http://www.maknyos.com/oq5uqmf72qfq/True.Grit.1080p.DarkdiabloZ.part05-maknyos.com.rar.html
    http://www.maknyos.com/jk2anox1rd4i/True.Grit.1080p.DarkdiabloZ.part06-maknyos.com.rar.html
    http://www.maknyos.com/pivf6co90mix/True.Grit.1080p.DarkdiabloZ.part07-maknyos.com.rar.html
    http://www.maknyos.com/0x4hsm2inmcg/True.Grit.1080p.DarkdiabloZ.part08-maknyos.com.rar.html
    http://www.maknyos.com/74kc44woyf1m/True.Grit.1080p.DarkdiabloZ.part09-maknyos.com.rar.html
    http://www.maknyos.com/k0v5hwupliub/True.Grit.1080p.DarkdiabloZ.part10-maknyos.com.rar.html
    http://www.maknyos.com/4dp0864kpsqe/True.Grit.1080p.DarkdiabloZ.part11-maknyos.com.rar.html
    http://www.maknyos.com/nbp4cnedgkep/True.Grit.1080p.DarkdiabloZ.part12-maknyos.com.rar.html



    Show Password

    DarkdiabloZ

  8. #5646

    Join Date
    Jan 2010
    Location
    Indonesia
    Posts
    16
    Thank(s)
    2/3
    Rep Power
    0

    Default

    Quote Originally Posted by smarty View Post
    [CENTER]Harry Potter And The Deathly Hallows: Part 1 (2010) 1080p BluRay



    Code:
    Harry Potter And The Deathly Hallows: Part 1 (2010) 1080p BluRay x264-TWiZTED
    
    RUNTiME........ 2h 26m
    ViDEO CODEC.... x264                                                                       
    ViDEO BiTRATE.. 9205 kbps
    RESOLUTiON..... 1920x800
    FRAMERATE...... 23.98
    AUDiO CODEC.... DTS 48000Hz
    AUDiO BiTRATE.. 1509 kbps
    FiLE SiZE...... 10.91 GB
    SUBTITLE....... None
    imdb........... http://www.imdb.com/title/tt0926084/
    Show SS awas BWK




    *** hidden content ***

    Code:
    1. Rename sesuai urutan (tanpa mengubah/menghapus extensi *.rar)
    2. Extract menggunakan Winrar (recomended)
    3. Jika terjadi error saat extract, gunakan menu repair pada Winrar (Recovery record added)
    enjooyyy...
    Yang baik hati boleh donk bagi-bagi ginian

    Show BONUS

    Suka Koleksi Film??? Pake eXtreme Movie Manager Latest Version [Maknyos | MF]
    Best of Video Converter 2011(All FULL) + Comparison[MAKNYOS]
    Best of Video Editing 2011 = CyberLink PowerDirector Ultra64 Latest Version[MAKNYOS]
    All-in-one media player = ArcSoft TotalMedia Theatre Platinum [Maknyos|MF]
    Utk Pecinta/Guru Matematika = SchoolHouse Math Resource Studio [Maknyos|MF]
    Utk Pengguna Setia WinXP = Yamicsoft WinXP Manager Latest Version [Maknyos|MF]
    Kembalikan Data Hilang via Network??? Pake Restorer Ultimate Pro Network [Maknyos|MF]
    Mudahnya Membuat Icon Cantik dg Axialis IconWorkShop Latest Version [MF]
    NetBook Lambat??? Gunakan SysTweak Netbook Optimizer latest Version [Maknyos | MF]
    Remote Manager Super Canggih = NetSupport Manager last Version [MAKNYOS]
    Buat Lembar Soal&Jawaban/ujian/kuisioner Dg Schoolhouse Test 3.1.3.1[Maknyos]
    System Utilities TERLENGKAP = Spotmau PowerSuite | MAKNYOS
    Best of System Utilities 2011 = Advanced System Utilities 3.1.6 + Comparison[MAKNYOS]
    Best Of MP3 Player 2011 = MediaMonkey Gold+Comparison[MAKNYOS]
    Best of Audio Converter 2011(All FULL)+Comparison[MAKNYOS]
    Spyware Doctor with AntiVirus 2011 v8.0.0.623 + Serial [MAKNYOS]
    Animasikan Wajah Anda dg FantaMorph 4.2.6 Deluxe[MAKNYOS]
    Aplikasi Monitor Log dan Disk di Network untuk System Administrator[Maknyos]
    Webroot Antivirus With Spysweeper 2011 7.0.4 + Serial For 2043 Days[MAKNYOS]
    WebCam biasa bs jadi Sistem Pengawasan dg Motion dan Sound detection[MAKNYOS]
    3D-Doctor 4.0.20101105
    bos sepertinya part 5 bermasalah nih, bisa minta tolong di reupload ngga? Thanks before, cheers

  9. Who Said Thanks:


  10. #5647

    Join Date
    May 2009
    Location
    West Java
    Posts
    1,050
    Thank(s)
    13/138,415
    Rep Power
    5

    Default

    Conviction 1080p Blu-Ray (2010)



    Show Information

    Code:
    IMDB: http://www.imdb.com/title/tt1244754/
    Director: Tony Goldwyn
    Genre: Biography, Drama
    
    Cast
    Hillary Swank ... Betty Anne Waters
    Sam Rockwell ... Kenny Waters
    Mellisa Leo ... Nancy Taylor
    
    General #1
          ID : 1
          Format : BDAV
          Format/Info : Blu-ray Video
          File size : 4.35 GiB
          Duration : 1h 47mn
          Overall bit rate : 5 823 Kbps
          Maximum Overall bit rate : 35.5 Mbps
      Video #4113
          ID : 4113 (0x1011)
          Menu ID : 1 (0x1)
          Format : AVC
          Format/Info : Advanced Video Codec
          Format profile : High@L4.1
          Format settings, CABAC : Yes
          Format settings, ReFrames : 3 frames
          Duration : 1h 47mn
          Bit rate : 4 940 Kbps
          Nominal bit rate : 4 754 Kbps
          Width : 1 920 pixels
          Height : 1 080 pixels
          Display aspect ratio : 16:9
          Frame rate : 23.976 fps
          Resolution : 24 bits
          Colorimetry : 4:2:0
          Scan type : Progressive
          Bits/(Pixel*Frame) : 0.099
          Stream size : 3.69 GiB (85%)
          Writing library : x264 core 104 r1683 62997d6
          Encoding settings : cabac=1 / ref=1 / deblock=1:0:0 / analyse=0x3:0x113 / me=hex / subme=2 / psy=1 / psy_rd=0.00:0.00 / mixed_ref=0 / me_range=16 / chroma_me=1 / trellis=0 / 8x8dct=1 / cqm=0 / deadzone=21,11 / fast_pskip=1 / chroma_qp_offset=0 / threads=3 / sliced_threads=0 / slices=4 / nr=0 / decimate=1 / interlaced=0 / constrained_intra=0 / bframes=3 / b_pyramid=1 / b_adapt=1 / b_bias=0 / direct=3 / weightb=1 / open_gop=2 / weightp=0 / keyint=24 / keyint_min=2 / scenecut=40 / intra_refresh=0 / rc_lookahead=24 / rc=2pass / mbtree=1 / bitrate=4754 / ratetol=1.0 / qcomp=0.60 / qpmin=10 / qpmax=51 / qpstep=4 / cplxblur=20.0 / qblur=0.5 / vbv_maxrate=18000 / vbv_bufsize=18000 / ip_ratio=1.40 / aq=1:1.00 / nal_hrd=vbr
       Audio #4352
          ID : 4352 (0x1100)
          Menu ID : 1 (0x1)
          Format : AC-3
          Format/Info : Audio Coding 3
          Duration : 1h 47mn
          Bit rate mode : Constant
          Bit rate : 640 Kbps
          Channel(s) : 6 channels
          Channel positions : Front: L C R, Surround: L R, LFE
          Sampling rate : 48.0 KHz
          Stream size : 490 MiB (11%)
          Language : English /  /
       Text #4608
          ID : 4608 (0x1200)
          Menu ID : 1 (0x1)
          Format : PGS
          Language : English /  /
       Text #4609
          ID : 4609 (0x1201)
          Menu ID : 1 (0x1)
          Format : PGS
          Language : Croatian /  /


    Show Link Download

    Code:
    http://www.maknyos.com/iogilil4ofmq/Conviction.1080p.DarkdiabloZ.part01-maknyos.com.rar.html
    http://www.maknyos.com/f6wmb88modxi/Conviction.1080p.DarkdiabloZ.part02-maknyos.com.rar.html
    http://www.maknyos.com/f0rwqsn7vt5c/Conviction.1080p.DarkdiabloZ.part03-maknyos.com.rar.html
    http://www.maknyos.com/3f7nymq3dw6n/Conviction.1080p.DarkdiabloZ.part04-maknyos.com.rar.html
    http://www.maknyos.com/7maw9tdz5tab/Conviction.1080p.DarkdiabloZ.part05-maknyos.com.rar.html
    http://www.maknyos.com/gcovidi5fdu0/Conviction.1080p.DarkdiabloZ.part06-maknyos.com.rar.html
    http://www.maknyos.com/zqx0sbcjamyy/Conviction.1080p.DarkdiabloZ.part07-maknyos.com.rar.html
    http://www.maknyos.com/9s7u06o30z23/Conviction.1080p.DarkdiabloZ.part08-maknyos.com.rar.html
    http://www.maknyos.com/qcnsc2nq5ace/Conviction.1080p.DarkdiabloZ.part09-maknyos.com.rar.html
    http://www.maknyos.com/w5vjtf7smgfc/Conviction.1080p.DarkdiabloZ.part10-maknyos.com.rar.html
    http://www.maknyos.com/27fdd0q07b1i/Conviction.1080p.DarkdiabloZ.part11-maknyos.com.rar.html
    http://www.maknyos.com/k71l4vajxp7f/Conviction.1080p.DarkdiabloZ.part12-maknyos.com.rar.html
    http://www.maknyos.com/97y5z3ijdd9j/Conviction.1080p.DarkdiabloZ.part13-maknyos.com.rar.html
    http://www.maknyos.com/guc608240ki7/Conviction.1080p.DarkdiabloZ.part14-maknyos.com.rar.html
    http://www.maknyos.com/c9hy4igpkp0l/Conviction.1080p.DarkdiabloZ.part15-maknyos.com.rar.html
    http://www.maknyos.com/oltwyvd7tzjh/Conviction.1080p.DarkdiabloZ.part16-maknyos.com.rar.html
    http://www.maknyos.com/5n9xghjmbngy/Conviction.1080p.DarkdiabloZ.part17-maknyos.com.rar.html
    http://www.maknyos.com/bdny2b6vjoec/Conviction.1080p.DarkdiabloZ.part18-maknyos.com.rar.html
    http://www.maknyos.com/itqrpjxta8fm/Conviction.1080p.DarkdiabloZ.part19-maknyos.com.rar.html
    http://www.maknyos.com/eegbn2we6dy6/Conviction.1080p.DarkdiabloZ.part20-maknyos.com.rar.html
    http://www.maknyos.com/aakl5wd0v9of/Conviction.1080p.DarkdiabloZ.part21-maknyos.com.rar.html
    http://www.maknyos.com/eigef4tzjkdg/Conviction.1080p.DarkdiabloZ.part22-maknyos.com.rar.html
    http://www.maknyos.com/j7otq3hrssox/Conviction.1080p.DarkdiabloZ.part23-maknyos.com.rar.html
    http://www.maknyos.com/0g2uawae7ama/Conviction.1080p.DarkdiabloZ.part24-maknyos.com.rar.html


    Show Password
    DarkdiabloZ

  11. #5648

    Join Date
    May 2010
    Location
    indonesia
    Posts
    96
    Thank(s)
    1/889
    Rep Power
    0

    Default

    bang mod,

    tolong donk... saya uda pm TS nya film Jackass 3 (2010) UNRATED 720p BluRay.... tapi inbox doi full...

    yg part 2 dari idws koq ga bisa di donlot ya?

    gimana nih,,, cuma tinggal 1 part aja...

    hik hik...

    ini linknya..
    http://www.indowebster.web.id/showth...=1#post9055083

  12. Who Said Thanks:


  13. #5649

    Join Date
    Nov 2008
    Location
    Jakarta
    Posts
    127
    Thank(s)
    1/3,487
    Rep Power
    0

    Default

    Guys.. tanya donk

    utk part02 dari "I'm No Four"
    kok saat di download cma 3kb-an yah?

    ad link backupnya ngga?
    kalo misalnya sblmnya ud post, sorry yah
    ud cari2 kaga nemu (@_@!!)

    thanks

  14. Who Said Thanks:


  15. #5650

    Join Date
    Apr 2009
    Location
    Earth
    Posts
    28,211
    Thank(s)
    0/149,252
    Blog Entries
    2
    Rep Power
    41

    Default

    Quote Originally Posted by HeartLeZ View Post
    Guys.. tanya donk

    utk part02 dari "I'm No Four"
    kok saat di download cma 3kb-an yah?

    ad link backupnya ngga?
    kalo misalnya sblmnya ud post, sorry yah
    ud cari2 kaga nemu (@_@!!)

    thanks
    http://www.indowebster.web.id/showth...=1#post9706877

    yang itu kan? bukannya uda ada link maknyos nya ya dibawahnya?

Page 565 of 583 FirstFirst ... 65465515555561562563564565566567568569575 ... LastLast

Bookmarks

Posting Permissions

  • You may not post new threads
  • You may not post replies
  • You may not post attachments
  • You may not edit your posts
  •  
Indowebster is proudly powered by PT. Gudang Data Indonesia