Page 571 of 583 FirstFirst ... 71471521561567568569570571572573574575581 ... LastLast
Results 5,701 to 5,710 of 5830

Thread: [Archive] HD Collection | Lokal ONLY | I
http://idws.in/18136

  1. #5701

    Join Date
    Apr 2009
    Location
    Earth
    Posts
    28,625
    Thank(s)
    0/154,253
    Blog Entries
    2
    Rep Power
    47

    Default

    Quote Originally Posted by Zondai View Post
    KK agan... mao nanya donk... kalo nunggu server yang storage maintenance kira2 berapa lama yah??? Yang server harpot uda 2 minggu masi tetep maintenance kk soalnya...

    merepotkan...
    http://www.indowebster.web.id/showthread.php?t=173367

  2. #5702

    Join Date
    Aug 2011
    Location
    jakarta
    Posts
    27
    Thank(s)
    0/819
    Rep Power
    0

    Default

    bro, film gone in 60 seconds yg di link
    part 18 nya udh gak bsa di donlot.. bisa di bantu gak?? makasii bro..

  3. #5703

    Join Date
    Jan 2011
    Location
    Rep. Indonesia
    Posts
    6,104
    Thank(s)
    0/16,448
    Rep Power
    8

    Default

    Quote Originally Posted by akarsingkong View Post
    bro, film gone in 60 seconds yg di link

    part 18 nya udh gak bsa di donlot.. bisa di bantu gak?? makasii bro..
    coba cek pejwan, kayaknya pernah di reupload deh

  4. #5704

    Join Date
    Jul 2011
    Location
    indonesia
    Posts
    56
    Thank(s)
    0/310
    Rep Power
    0

    Default

    Bro..
    W baru siep download semua part Casino Royale..
    Tp file ny damage or broken..

  5. #5705

    Join Date
    Aug 2011
    Location
    jakarta
    Posts
    27
    Thank(s)
    0/819
    Rep Power
    0

    Default

    Quote Originally Posted by Think77 View Post
    coba cek pejwan, kayaknya pernah di reupload deh
    eh iya bro ada,, tp yg 720p itu.. kalo yg 1080p nya kgk ada lg yak?

  6. #5706

    Join Date
    Jul 2009
    Location
    Yogyakarta
    Posts
    6,825
    Thank(s)
    0/3,287
    Rep Power
    12

    Default

    Quote Originally Posted by majini View Post
    Bro..
    W baru siep download semua part Casino Royale..
    Tp file ny damage or broken..
    itu kan ada checksum nya... coba di cek, file mana yg rusak, terus redownload.
    Please correct me, if I made spelling or grammar error, and misleading content.

  7. #5707

    Join Date
    Feb 2011
    Location
    Curup
    Posts
    39
    Thank(s)
    0/9
    Rep Power
    0

    Default

    bro itu ironma 2 2010 partnya ada yg error upload lagi donk... help bro

  8. #5708

    Join Date
    Apr 2009
    Location
    Earth
    Posts
    28,625
    Thank(s)
    215/154,253
    Blog Entries
    2
    Rep Power
    47

    Default

    Rush Hour 1 [720p] [1998]

    Show INFO
    Code:
    General
    Unique ID                        : 178849741751982627249925550385249989973 (0x868D3512D50BCC749D94FE136EB13555)
    Format                           : Matroska
    File size                        : 4.37 GiB
    Duration                         : 1h 37mn
    Overall bit rate                 : 6 388 Kbps
    Encoded date                     : UTC 2007-06-27 08:54:52
    Writing application              : mkvmerge v2.0.2 ('You're My Flame') built on Feb 22 2007 00:05:35
    Writing library                  : libebml v0.7.7 + libmatroska v0.8.1
    
    Video
    ID                               : 1
    Format                           : AVC
    Format/Info                      : Advanced Video Codec
    Format profile                   : High@L5.1
    Format settings, CABAC           : Yes
    Format settings, ReFrames        : 8 frames
    Codec ID                         : V_MPEG4/ISO/AVC
    Duration                         : 1h 37mn
    Bit rate                         : 5 560 Kbps
    Width                            : 1 280 pixels
    Height                           : 544 pixels
    Display aspect ratio             : 2.35:1
    Frame rate                       : 23.976 fps
    Color space                      : YUV
    Chroma subsampling               : 4:2:0
    Bit depth                        : 8 bits
    Scan type                        : Progressive
    Bits/(Pixel*Frame)               : 0.333
    Stream size                      : 3.71 GiB (85%)
    Writing library                  : x264 core 54
    Encoding settings                : cabac=1 / ref=5 / deblock=1:-3:-2 / analyse=0x3:0x133 / me=umh / subme=7 / brdo=1 / mixed_ref=1 / me_range=16 / chroma_me=1 / trellis=1 / 8x8dct=1 / cqm=2 / deadzone=21,11 / chroma_qp_offset=0 / threads=3 / nr=0 / decimate=1 / mbaff=0 / bframes=3 / b_pyramid=1 / b_adapt=1 / b_bias=0 / direct=3 / wpredb=1 / bime=1 / keyint=250 / keyint_min=25 / scenecut=40(pre) / rc=2pass / bitrate=5560 / ratetol=1.0 / rceq='blurCplx^(1-qComp)' / qcomp=0.60 / qpmin=10 / qpmax=51 / qpstep=4 / cplxblur=20.0 / qblur=0.5 / ip_ratio=1.40 / pb_ratio=1.30
    Language                         : English
    
    Audio #1
    ID                               : 2
    Format                           : AC-3
    Format/Info                      : Audio Coding 3
    Mode extension                   : CM (complete main)
    Codec ID                         : A_AC3
    Duration                         : 1h 37mn
    Bit rate mode                    : Constant
    Bit rate                         : 384 Kbps
    Channel(s)                       : 6 channels
    Channel positions                : Front: L C R, Side: L R, LFE
    Sampling rate                    : 48.0 KHz
    Bit depth                        : 16 bits
    Compression mode                 : Lossy
    Stream size                      : 269 MiB (6%)
    Language                         : Russian
    
    Audio #2
    ID                               : 3
    Format                           : AC-3
    Format/Info                      : Audio Coding 3
    Mode extension                   : CM (complete main)
    Codec ID                         : A_AC3
    Duration                         : 1h 37mn
    Bit rate mode                    : Constant
    Bit rate                         : 448 Kbps
    Channel(s)                       : 6 channels
    Channel positions                : Front: L C R, Side: L R, LFE
    Sampling rate                    : 48.0 KHz
    Bit depth                        : 16 bits
    Compression mode                 : Lossy
    Stream size                      : 314 MiB (7%)
    Language                         : English
    
    Text
    ID                               : 4
    Format                           : UTF-8
    Codec ID                         : S_TEXT/UTF8
    Codec ID/Info                    : UTF-8 Plain Text
    Language                         : English
    
    

    Show DOWNLOAD

    Code:
    SILAHKAN DIBACA DAHULU
    Download semua file. Join dengan HJSplit
    Untuk tanya masalah server IDWS silahkan ke SINI
    Cek Checksum pakai exactfile
    Bingung cara checksum? Bisa di cek disini
    
    Kalo ada masalah silahkan lapor via PM atau VM
    
    You must click 'Thank You' before you can see the data contained here.
    You do not have sufficient rights to see the hidden data contained here.





    Last edited by Thinl; 14-08-2011 at 12:25 AM.

  9. Who Said Thanks:

    There are too many to display.

  10. #5709

    Join Date
    Apr 2009
    Location
    Earth
    Posts
    28,625
    Thank(s)
    190/154,253
    Blog Entries
    2
    Rep Power
    47

    Default

    Rush Hour 2 [720p] [2001]

    Show INFO
    Code:
    General
    Unique ID                        : 183769394313369034295003666595187473151 (0x8A40B2ABFFD77A79B5A2290A662B3AFF)
    Format                           : Matroska
    File size                        : 4.37 GiB
    Duration                         : 1h 30mn
    Overall bit rate                 : 6 947 Kbps
    Encoded date                     : UTC 2007-08-16 17:37:56
    Writing application              : mkvmerge v2.0.2 ('You're My Flame') built on Feb 21 2007 23:40:55
    Writing library                  : libebml v0.7.7 + libmatroska v0.8.1
    
    Video
    ID                               : 1
    Format                           : AVC
    Format/Info                      : Advanced Video Codec
    Format profile                   : High@L5.1
    Format settings, CABAC           : Yes
    Format settings, ReFrames        : 4 frames
    Codec ID                         : V_MPEG4/ISO/AVC
    Duration                         : 1h 30mn
    Bit rate                         : 6 557 Kbps
    Width                            : 1 280 pixels
    Height                           : 512 pixels
    Display aspect ratio             : 2.500
    Frame rate                       : 23.976 fps
    Color space                      : YUV
    Chroma subsampling               : 4:2:0
    Bit depth                        : 8 bits
    Scan type                        : Progressive
    Bits/(Pixel*Frame)               : 0.417
    Stream size                      : 4.04 GiB (92%)
    Writing library                  : x264 core 48 svn-537
    Encoding settings                : cabac=1 / ref=3 / deblock=1:0:0 / analyse=0x3:0x113 / me=hex / subme=5 / brdo=0 / mixed_ref=0 / me_range=16 / chroma_me=1 / trellis=1 / 8x8dct=1 / cqm=0 / chroma_qp_offset=0 / slices=4 / nr=0 / decimate=1 / bframes=3 / b_pyramid=0 / b_adapt=1 / b_bias=0 / direct=2 / wpredb=1 / bime=0 / keyint=250 / keyint_min=25 / scenecut=40 / rc=2pass / bitrate=6557 / ratetol=1.0 / rceq='blurCplx^(1-qComp)' / qcomp=0.60 / qpmin=10 / qpmax=51 / qpstep=4 / cplxblur=20.0 / qblur=0.5 / ip_ratio=1.40 / pb_ratio=1.30
    Language                         : English
    
    Audio
    ID                               : 2
    Format                           : AC-3
    Format/Info                      : Audio Coding 3
    Mode extension                   : CM (complete main)
    Codec ID                         : A_AC3
    Duration                         : 1h 30mn
    Bit rate mode                    : Constant
    Bit rate                         : 384 Kbps
    Channel(s)                       : 2 channels
    Channel positions                : Front: L R
    Sampling rate                    : 48.0 KHz
    Bit depth                        : 16 bits
    Compression mode                 : Lossy
    Delay relative to video          : -125ms
    Stream size                      : 247 MiB (6%)
    
    

    Show DOWNLOAD

    Code:
    SILAHKAN DIBACA DAHULU
    Download semua file. Join dengan HJSplit
    Untuk tanya masalah server IDWS silahkan ke SINI
    Cek Checksum pakai exactfile
    Bingung cara checksum? Bisa di cek disini
    
    Kalo ada masalah silahkan lapor via PM atau VM
    
    You must click 'Thank You' before you can see the data contained here.
    You do not have sufficient rights to see the hidden data contained here.


    Last edited by Thinl; 14-08-2011 at 12:25 AM.

  11. Who Said Thanks:

    There are too many to display.

  12. #5710

    Join Date
    Apr 2009
    Location
    Earth
    Posts
    28,625
    Thank(s)
    199/154,253
    Blog Entries
    2
    Rep Power
    47

    Default

    Rush Hour 3 [720p] [2007]

    Show INFO
    Code:
    
    General
    Unique ID                        : 171849635922255931130329221006507448998 (0x81490935B042733AB5D9AA8C29211AA6)
    Format                           : Matroska
    File size                        : 4.37 GiB
    Duration                         : 1h 30mn
    Overall bit rate                 : 6 897 Kbps
    Encoded date                     : UTC 2007-12-21 06:39:11
    Writing application              : mkvmerge v2.1.0 ('Another Place To Fall') built on Aug 19 2007 13:40:07
    Writing library                  : libebml v0.7.7 + libmatroska v0.8.1
    
    Video
    ID                               : 2
    Format                           : AVC
    Format/Info                      : Advanced Video Codec
    Format profile                   : High@L5.1
    Format settings, CABAC           : Yes
    Format settings, ReFrames        : 8 frames
    Codec ID                         : V_MPEG4/ISO/AVC
    Duration                         : 1h 30mn
    Bit rate                         : 5 384 Kbps
    Width                            : 1 280 pixels
    Height                           : 528 pixels
    Display aspect ratio             : 2.40:1
    Frame rate                       : 23.976 fps
    Color space                      : YUV
    Chroma subsampling               : 4:2:0
    Bit depth                        : 8 bits
    Scan type                        : Progressive
    Bits/(Pixel*Frame)               : 0.332
    Stream size                      : 3.33 GiB (76%)
    Writing library                  : x264 core 57 svn-709C
    Encoding settings                : cabac=1 / ref=5 / deblock=1:0:0 / analyse=0x3:0x113 / me=umh / fpel_cmp=sad / subme=6 / me-prepass=0 / brdo=0 / mixed_ref=1 / me_range=16 / chroma_me=1 / trellis=1 / 8x8dct=1 / cqm=2 / deadzone=4,6 / chroma_qp_offset=0 / threads=3 / nr=0 / decimate=1 / mbaff=0 / bframes=3 / b_pyramid=1 / b_adapt=1 / b_bias=0 / direct=3 / wpredb=1 / bime=1 / keyint=250 / keyint_min=25 / scenecut=40(pre) / rc=2pass / bitrate=5384 / ratetol=1.0 / rceq='blurCplx^(1-qComp)' / qcomp=0.60 / qpmin=10 / qpmax=51 / qpstep=4 / cplxblur=20.0 / qblur=0.5 / ip_ratio=1.40 / pb_ratio=1.30 / zones=121627,130606,b=0.2 / aq=1:0.3:15.0
    Language                         : English
    
    Audio
    ID                               : 1
    Format                           : DTS
    Format/Info                      : Digital Theater Systems
    Codec ID                         : A_DTS
    Duration                         : 1h 30mn
    Bit rate mode                    : Constant
    Bit rate                         : 1 510 Kbps
    Channel(s)                       : 6 channels
    Channel positions                : Front: L C R, Side: L R, LFE
    Sampling rate                    : 48.0 KHz
    Bit depth                        : 24 bits
    Compression mode                 : Lossy
    Stream size                      : 980 MiB (22%)
    Language                         : English
    
    
    

    Show DOWNLOAD

    Code:
    SILAHKAN DIBACA DAHULU
    Download semua file. Join dengan HJSplit
    Untuk tanya masalah server IDWS silahkan ke SINI
    Cek Checksum pakai exactfile
    Bingung cara checksum? Bisa di cek disini
    
    Kalo ada masalah silahkan lapor via PM atau VM
    
    You must click 'Thank You' before you can see the data contained here.
    You do not have sufficient rights to see the hidden data contained here.


    Last edited by Thinl; 14-08-2011 at 12:25 AM.

  13. Who Said Thanks:

    There are too many to display.

Page 571 of 583 FirstFirst ... 71471521561567568569570571572573574575581 ... LastLast

Bookmarks

Posting Permissions

  • You may not post new threads
  • You may not post replies
  • You may not post attachments
  • You may not edit your posts
  •  
Indowebster is proudly powered by PT. Gudang Data Indonesia