Page 572 of 583 FirstFirst ... 72472522562568569570571572573574575576582 ... LastLast
Results 5,711 to 5,720 of 5830

Thread: [Archive] HD Collection | Lokal ONLY | I
http://idws.in/18136

  1. #5711

    Join Date
    Jul 2011
    Location
    dimana saja
    Posts
    1,262
    Thank(s)
    127/60,803
    Rep Power
    4

    Default

    The.Beaver.2011.LIMITED.720p.BluRay.X264-AMIABLE


    Show INFO

    Code:
    General
    Complete name                    : The.Beaver.2011.LIMITED.720p.BluRay.X264-AMIABLE.mkv
    Format                           : Matroska
    File size                        : 4.37 GiB
    Duration                         : 1h 30mn
    Overall bit rate                 : 6 876 Kbps
    Writing application              : x264.exe
    Writing library                  : mkv2rls v1.4 (date: 2011 mar 29)
    
    Video
    ID                               : 1
    Format                           : AVC
    Format/Info                      : Advanced Video Codec
    Format profile                   : High@L4.1
    Format settings, CABAC           : Yes
    Format settings, ReFrames        : 5 frames
    Codec ID                         : V_MPEG4/ISO/AVC
    Duration                         : 1h 30mn
    Bit rate                         : 5 366 Kbps
    Width                            : 1 280 pixels
    Height                           : 536 pixels
    Display aspect ratio             : 2.35:1
    Frame rate                       : 23.976 fps
    Color space                      : YUV
    Chroma subsampling               : 4:2:0
    Bit depth                        : 8 bits
    Scan type                        : Progressive
    Bits/(Pixel*Frame)               : 0.326
    Stream size                      : 3.32 GiB (76%)
    Writing library                  : x264 core 116 r2057 0ba8a9c
    Encoding settings                : cabac=1 / ref=5 / deblock=1:0:0 / analyse=0x3:0x113 / me=umh / subme=8 / psy=1 / psy_rd=1.00:0.00 / mixed_ref=1 / me_range=16 / chroma_me=1 / trellis=1 / 8x8dct=1 / cqm=0 / deadzone=21,11 / fast_pskip=1 / chroma_qp_offset=-2 / threads=12 / sliced_threads=0 / nr=0 / decimate=1 / interlaced=0 / bluray_compat=0 / constrained_intra=0 / bframes=3 / b_pyramid=2 / b_adapt=2 / b_bias=0 / direct=3 / weightb=1 / open_gop=0 / weightp=2 / keyint=240 / keyint_min=24 / scenecut=40 / intra_refresh=0 / rc_lookahead=50 / rc=2pass / mbtree=1 / bitrate=5366 / ratetol=1.0 / qcomp=0.60 / qpmin=0 / qpmax=69 / qpstep=4 / cplxblur=20.0 / qblur=0.5 / ip_ratio=1.40 / aq=1:1.00
    Language                         : English
    
    Audio
    ID                               : 2
    Format                           : DTS
    Format/Info                      : Digital Theater Systems
    Codec ID                         : A_DTS
    Duration                         : 1h 30mn
    Bit rate mode                    : Constant
    Bit rate                         : 1 510 Kbps
    Channel(s)                       : 6 channels
    Channel positions                : Front: L C R, Side: L R, LFE
    Sampling rate                    : 48.0 KHz
    Bit depth                        : 24 bits
    Compression mode                 : Lossy
    Stream size                      : 983 MiB (22%)
    Language                         : English
    
    Text
    ID                               : 3
    Format                           : UTF-8
    Codec ID                         : S_TEXT/UTF8
    Codec ID/Info                    : UTF-8 Plain Text
    Language                         : English
    
    Menu
    00:00:00.000                     : en:00:00:00.000
    00:06:52.996                     : en:00:06:52.996
    00:11:37.906                     : en:00:11:37.906
    00:14:41.339                     : en:00:14:41.339
    00:19:56.737                     : en:00:19:56.737
    00:24:18.749                     : en:00:24:18.749
    00:30:56.730                     : en:00:30:56.730
    00:33:28.506                     : en:00:33:28.506
    00:40:03.443                     : en:00:40:03.443
    00:48:19.355                     : en:00:48:19.355
    00:51:13.028                     : en:00:51:13.028
    00:55:32.496                     : en:00:55:32.496
    01:00:51.815                     : en:01:00:51.815
    01:05:29.259                     : en:01:05:29.259
    01:09:03.806                     : en:01:09:03.806
    01:12:11.118                     : en:01:12:11.118
    01:16:51.774                     : en:01:16:51.774
    01:22:04.378                     : en:01:22:04.378



    You must click 'Thank You' before you can see the data contained here.
    You do not have sufficient rights to see the hidden data contained here.


    Code:
    * Download semua file dan join dengan HJSplit
    Last edited by Semplice; 27-09-2011 at 04:58 PM. Reason: reupload

  2. Who Said Thanks:

    There are too many to display.

  3. #5712

    Join Date
    Jun 2009
    Location
    Surabaya
    Posts
    255
    Thank(s)
    1/77
    Rep Power
    0

    Default

    Quote Originally Posted by streams View Post

    8. X-Men Origins Wolverine 2009 BluRay.1080p.x264.DTS-WiKi

    *** hidden content ***
    nb: part 6 dan 11 udah di reupload.. link masi sama..
    tolong donk re-upload ulang yang part 2, 4, 8 dan 10 nih...hasilnya "404 Not Found"

    Thx


    Quote Originally Posted by smarty View Post
    [CENTER]I Am Number Four (2011) 1080p BluRay
    yang ini juga gk bisa di donlot ada yang file not found dan storage maintenance...
    tolong donk reupload part 2,3 dan 11...

    plzzzzz :)
    Last edited by xybernet; 13-08-2011 at 08:55 AM.

  4. Who Said Thanks:


  5. #5713

    Join Date
    Mar 2011
    Location
    jakarta
    Posts
    54
    Thank(s)
    0/5
    Rep Power
    0

    Default

    siang all
    mau nanya ni ane abis download fight club nah an play movienya kok rada2 patah2 ya ?
    ane liat di task manager cpunya 100%

    ane pake amd fusion yang e350n gigabyte ada tehnik biar kerjanya ke vga nya ngga ya? kalo boleh minta tips and triknya donk

  6. #5714

    Join Date
    Apr 2009
    Location
    Jakarta
    Posts
    42
    Thank(s)
    0/64
    Rep Power
    0

    Default

    Pak Anthrax, bagaimana kabar Men Of Honor nya ya?
    Apakah sudah di reupload lagi?... Karena statrus part 01 nya masih "Storage Maintenance, Back Later".
    Sudah lama status nya begitu,.... berminggu - minggu....

    Thx

  7. #5715

    Join Date
    Feb 2010
    Location
    jogja
    Posts
    24,921
    Thank(s)
    0/597,948
    Blog Entries
    5
    Rep Power
    832

    Default

    Quote Originally Posted by sesat View Post
    Pak Anthrax, bagaimana kabar Men Of Honor nya ya?
    Apakah sudah di reupload lagi?... Karena statrus part 01 nya masih "Storage Maintenance, Back Later".
    Sudah lama status nya begitu,.... berminggu - minggu....

    Thx
    wahhhh,,,,saya lupa

    tu yang minta upload ulang part 1 aja
    y besok deh reuploadnya~

  8. #5716

    Join Date
    Aug 2009
    Location
    Borneo
    Posts
    121
    Thank(s)
    0/12
    Rep Power
    0

    Default

    Bos THINL "Rush Hour 1 [720p] [1998]" yang part 18 ngak bisa di sedot kenapa ya ??
    help please

  9. #5717

    Join Date
    May 2009
    Location
    West Java
    Posts
    1,051
    Thank(s)
    16/140,833
    Rep Power
    6

    Default

    Alice in Wonderland 1080p Blu-Ray(2010)



    Show Information

    IMDB:
    Code:
    http://www.imdb.com/title/tt1014759/
    Director: Tim Burton
    Genre: Adventure, Family, Fantasy

    Cast
    Johnny Depp ... Mad Hatter
    Mia Wasikowska ... Alice Kingsley
    Anne Hathaway ... White Queen


    General
    Format : Matroska
    File size : 7.95 GiB
    Duration : 1h 48mn
    Overall bit rate : 10.5 Mbps
    Encoded date : UTC 2008-05-07 23:30:33
    Writing application : mkvmerge v2.9.8 ('C'est le bon') built on Aug 21 2009 13:21:42
    Writing library : libebml v0.7.7 + libmatroska v0.8.1
    Video #1
    ID : 1
    Format : AVC
    Format/Info : Advanced Video Codec
    Format profile : High@L4.0
    Format settings, CABAC : Yes
    Format settings, ReFrames : 4 frames
    Muxing mode : Container profile=Unknown@4.0
    Codec ID : V_MPEG4/ISO/AVC
    Duration : 1h 48mn
    Bit rate : 8 758 Kbps
    Nominal bit rate : 8 968 Kbps
    Width : 1 920 pixels
    Height : 1 080 pixels
    Display aspect ratio : 16:9
    Frame rate : 23.976 fps
    Resolution : 24 bits
    Colorimetry : 4:2:0
    Scan type : Progressive
    Bits/(Pixel*Frame) : 0.176
    Stream size : 6.64 GiB (84%)
    Writing library : x264 core 94 r1583 7608d73
    Encoding settings : cabac=1 / ref=4 / deblock=1:0:0 / analyse=0x3:0x113 / me=umh / subme=7 / psy=1 / psy_rd=1.00:0.20 / mixed_ref=1 / me_range=16 / chroma_me=1 / trellis=1 / 8x8dct=1 / cqm=0 / deadzone=21,11 / fast_pskip=1 / chroma_qp_offset=-3 / threads=12 / sliced_threads=0 / nr=0 / decimate=1 / interlaced=0 / constrained_intra=0 / bframes=3 / b_pyramid=2 / b_adapt=1 / b_bias=0 / direct=3 / weightb=1 / weightp=0 / keyint=250 / keyint_min=25 / scenecut=40 / intra_refresh=0 / rc_lookahead=40 / rc=2pass / mbtree=1 / bitrate=8968 / ratetol=1.0 / qcomp=0.60 / qpmin=10 / qpmax=51 / qpstep=4 / cplxblur=20.0 / qblur=0.5 / ip_ratio=1.40 / aq=1:1.00
    Language : English
    Audio #2
    ID : 2
    Format : DTS
    Format/Info : Digital Theater Systems
    Format profile : ES
    Codec ID : A_DTS
    Duration : 1h 48mn
    Bit rate mode : Constant
    Bit rate : 1 510 Kbps
    Channel(s) : 6 channels
    Channel positions : Front: L C R, Surround: L R, LFE
    Sampling rate : 48.0 KHz
    Resolution : 24 bits
    Stream size : 1.15 GiB (14%)
    Language : English
    Text #3
    ID : 3
    Format : UTF-8
    Codec ID : S_TEXT/UTF8
    Codec ID/Info : UTF-8 Plain Text
    Language : English



    Show Maknyos

    Code:
    http://www.maknyos.com/ny3k17r66kzi/aliceinwonderland.1080p.DarkdiabloZ.part01-maknyos.com.rar.html
    http://www.maknyos.com/sh91wb648gcj/aliceinwonderland.1080p.DarkdiabloZ.part02-maknyos.com.rar.html
    http://www.maknyos.com/7ear5iewgvug/aliceinwonderland.1080p.DarkdiabloZ.part03-maknyos.com.rar.html
    http://www.maknyos.com/aw6vkmkuiq4q/aliceinwonderland.1080p.DarkdiabloZ.part04-maknyos.com.rar.html
    http://www.maknyos.com/kozgn5re5lsf/aliceinwonderland.1080p.DarkdiabloZ.part05-maknyos.com.rar.html
    http://www.maknyos.com/lpridmlwgk1m/aliceinwonderland.1080p.DarkdiabloZ.part06-maknyos.com.rar.html
    http://www.maknyos.com/73k2bh3dr01l/aliceinwonderland.1080p.DarkdiabloZ.part07-maknyos.com.rar.html
    http://www.maknyos.com/v16wxok8vinj/aliceinwonderland.1080p.DarkdiabloZ.part08-maknyos.com.rar.html
    http://www.maknyos.com/yhluxnbnu7wp/aliceinwonderland.1080p.DarkdiabloZ.part09-maknyos.com.rar.html
    http://www.maknyos.com/7a5z3v5v3o7f/aliceinwonderland.1080p.DarkdiabloZ.part10-maknyos.com.rar.html
    http://www.maknyos.com/s0c8gdi3j1df/aliceinwonderland.1080p.DarkdiabloZ.part11-maknyos.com.rar.html
    http://www.maknyos.com/nae9vnrof3gv/aliceinwonderland.1080p.DarkdiabloZ.part12-maknyos.com.rar.html
    http://www.maknyos.com/w3was7t2kjny/aliceinwonderland.1080p.DarkdiabloZ.part13-maknyos.com.rar.html
    http://www.maknyos.com/67c25b677e3z/aliceinwonderland.1080p.DarkdiabloZ.part14-maknyos.com.rar.html
    http://www.maknyos.com/86o2mr66a29m/aliceinwonderland.1080p.DarkdiabloZ.part15-maknyos.com.rar.html
    http://www.maknyos.com/k1hg4s1aioy6/aliceinwonderland.1080p.DarkdiabloZ.part16-maknyos.com.rar.html
    http://www.maknyos.com/xw4e42zltdv6/aliceinwonderland.1080p.DarkdiabloZ.part17-maknyos.com.rar.html
    http://www.maknyos.com/m8ygwwbk3zph/aliceinwonderland.1080p.DarkdiabloZ.part18-maknyos.com.rar.html
    http://www.maknyos.com/2pj5n99m6hr0/aliceinwonderland.1080p.DarkdiabloZ.part19-maknyos.com.rar.html
    http://www.maknyos.com/h6ml9g25nrom/aliceinwonderland.1080p.DarkdiabloZ.part20-maknyos.com.rar.html
    http://www.maknyos.com/58t01o890w7h/aliceinwonderland.1080p.DarkdiabloZ.part21-maknyos.com.rar.html
    http://www.maknyos.com/c59qvs2sqz6q/aliceinwonderland.1080p.DarkdiabloZ.part22-maknyos.com.rar.html
    http://www.maknyos.com/t6xvepeojwrs/aliceinwonderland.1080p.DarkdiabloZ.part23-maknyos.com.rar.html
    http://www.maknyos.com/mlw7cr7akjcc/aliceinwonderland.1080p.DarkdiabloZ.part24-maknyos.com.rar.html
    http://www.maknyos.com/c07hn5ensf9t/aliceinwonderland.1080p.DarkdiabloZ.part25-maknyos.com.rar.html
    http://www.maknyos.com/1zepts3stn18/aliceinwonderland.1080p.DarkdiabloZ.part26-maknyos.com.rar.html
    http://www.maknyos.com/ue7mnt1hz4i0/aliceinwonderland.1080p.DarkdiabloZ.part27-maknyos.com.rar.html
    http://www.maknyos.com/jmoh56bjcmqq/aliceinwonderland.1080p.DarkdiabloZ.part28-maknyos.com.rar.html
    http://www.maknyos.com/v4ja07agki5e/aliceinwonderland.1080p.DarkdiabloZ.part29-maknyos.com.rar.html
    http://www.maknyos.com/ym7q9ijzvzqr/aliceinwonderland.1080p.DarkdiabloZ.part30-maknyos.com.rar.html
    http://www.maknyos.com/2kjffl1cnqwq/aliceinwonderland.1080p.DarkdiabloZ.part31-maknyos.com.rar.html
    http://www.maknyos.com/6rngd75pus7c/aliceinwonderland.1080p.DarkdiabloZ.part32-maknyos.com.rar.html
    http://www.maknyos.com/5rzfsqyh2asm/aliceinwonderland.1080p.DarkdiabloZ.part33-maknyos.com.rar.html
    http://www.maknyos.com/rkqgpojl5dyx/aliceinwonderland.1080p.DarkdiabloZ.part34-maknyos.com.rar.html
    http://www.maknyos.com/147vccq0bdd3/aliceinwonderland.1080p.DarkdiabloZ.part35-maknyos.com.rar.html
    http://www.maknyos.com/7yxt3f2y055e/aliceinwonderland.1080p.DarkdiabloZ.part36-maknyos.com.rar.html
    http://www.maknyos.com/w8xh37xwnwez/aliceinwonderland.1080p.DarkdiabloZ.part37-maknyos.com.rar.html
    http://www.maknyos.com/xhl0r7nue63s/aliceinwonderland.1080p.DarkdiabloZ.part38-maknyos.com.rar.html
    http://www.maknyos.com/roi6ux4vxcuw/aliceinwonderland.1080p.DarkdiabloZ.part39-maknyos.com.rar.html
    http://www.maknyos.com/eirr2hxozg5k/aliceinwonderland.1080p.DarkdiabloZ.part40-maknyos.com.rar.html
    http://www.maknyos.com/1zn9vijjn4a0/aliceinwonderland.1080p.DarkdiabloZ.part41-maknyos.com.rar.html
    http://www.maknyos.com/bu0oqe9ie3r0/aliceinwonderland.1080p.DarkdiabloZ.part42-maknyos.com.rar.html
    http://www.maknyos.com/jw4k72d0vwrs/aliceinwonderland.1080p.DarkdiabloZ.part43-maknyos.com.rar.html
    http://www.maknyos.com/gda0614m8fsh/aliceinwonderland.1080p.DarkdiabloZ.part44-maknyos.com.rar.html
    http://www.maknyos.com/hnf1p0c3un45/aliceinwonderland.1080p.DarkdiabloZ.part45-maknyos.com.rar.html


    Show Password
    DarkdiabloZ

  10. #5718

    Join Date
    Jun 2009
    Location
    Surabaya
    Posts
    255
    Thank(s)
    1/77
    Rep Power
    0

    Default

    Quote Originally Posted by Thinl View Post
    The Twilight Saga 2 - New Moon [2009] [1080p]
    tolong yang part 2 gk bisa didonlot.....linknya gk jalan...diem aja

    re-upload lagi plzzzzz :)

  11. Who Said Thanks:


  12. #5719

    Join Date
    Jul 2011
    Location
    dimana saja
    Posts
    1,262
    Thank(s)
    0/60,803
    Rep Power
    4

    Default

    Quote Originally Posted by bericson View Post
    gan ane ga bisa liat download linknya ,bisa dishare gan,
    btw ane do not have sufficient rights to see the hidden data contained here.
    ini maksudnya apa gan,apa ane harus jadi donator,bayar dll.
    thx gan
    diklik Thanks dulu baru keliatan link filmnya.
    Tombol Thanks ada di bagian bawah kiri posting film-nya

  13. #5720

    Join Date
    Jan 2010
    Location
    Curva Sud
    Posts
    88
    Thank(s)
    3/37
    Rep Power
    0

    Default

    Quote Originally Posted by AnthraX View Post
    Prince.of.Persia.The.Sands.of.Time.720p.BluRay.x26 4-HUBRIS

    Code:
    NAME.....................: Prince of Persia : The Sand of Time (2010)
    GENRE....................: Action | Adventure | Fantasy | Romance
    RATING...................: 6.9/10      32,180 votes
    http://www.imdb.com/title/tt1188729/
    
    RUNTiME.............: 115 mins
    RELEASE.SiZE........: 6.56 GB  
    ViDEO.CODEC.........: AVC High@L4.1
    FRAME.RATE..........: 23.976 kbps
    VIDEO.BITRATE.......: 6592 Kbps   
    RESOLUTION..........: 1280 x 536
    AUDIO...............: DTS 48000Hz 6Ch @ 1510 kbps
    SUBTITLE............: RAW
    Show SS AWAS BWK








    DOWNLOAD LINKS @ Maknyos &
    *** hidden content ***

    Code:
    download semua file. hapus *.rar kemudian join dengan HJSplit.
    kalo ada file yang gak bisa di download, PM aku za
    gan, nuhun dong bantuannya..
    yang part 53 dan subtitle nya ndak bisa didonlod nih..
    tolong di reupload dong gan :)
    thanks before :)
    Last edited by AnthraX; 13-08-2011 at 10:04 PM.

  14. Who Said Thanks:


Page 572 of 583 FirstFirst ... 72472522562568569570571572573574575576582 ... LastLast

Bookmarks

Posting Permissions

  • You may not post new threads
  • You may not post replies
  • You may not post attachments
  • You may not edit your posts
  •  
Indowebster is proudly powered by PT. Gudang Data Indonesia