Page 574 of 583 FirstFirst ... 74474524564570571572573574575576577578 ... LastLast
Results 5,731 to 5,740 of 5830

Thread: [Archive] HD Collection | Lokal ONLY | I
http://idws.in/18136

  1. #5731

    Join Date
    Apr 2009
    Location
    Earth
    Posts
    28,624
    Thank(s)
    0/154,278
    Blog Entries
    2
    Rep Power
    47

    Default

    Quote Originally Posted by logarit View Post
    siang all ane download fight club yang full hd pass ane play kok patah2 ya?
    ane pake gigabyte e350n
    itu apa ya? motherboard ato laptop ato netbook?

  2. #5732

    Join Date
    Jan 2010
    Location
    Curva Sud
    Posts
    87
    Thank(s)
    0/40
    Rep Power
    0

    Default

    Quote Originally Posted by Thinl View Post
    cek lagi dulu ya



    tolong judul thread dibaca lagi, no quote pic
    hadehh.. maaf yah mas broo...
    ane lupaa..


    ___________________
    edited
    ___________________

    barusan ane coba lagi..
    eh ternyata udah bisa part 53 and subtitle nya
    Last edited by fallingdown; 14-08-2011 at 11:07 AM.

  3. #5733

    Join Date
    Feb 2010
    Location
    depan monitor
    Posts
    15
    Thank(s)
    2/2
    Rep Power
    0

    Default

    Quote Originally Posted by smarty View Post
    [CENTER]The Green Hornet (2011) 720p BluRay

    Code:
    The Green Hornet (2011) 720p BluRay x264-TheGreenHornet
    
    iMDB RATiNG...: 6.3/10   12,613 votes

    *** hidden content ***

    Code:
    1. Rename sesuai urutan (tanpa mengubah/menghapus extensi *.rar)
    2. Extract menggunakan Winrar (recomended)
    3. Jika terjadi error saat extract, gunakan menu repair pada Winrar (Recovery record added)
    enjooyyy...
    Yang baik hati boleh donk bagi-bagi ginian

    Show BONUS


    kk smarty maap mau tanya kok part9 nya kl mau di download tulisannya selalu "storage maintenance, back later" yah?
    padahal udah ane tunggu satu minggu tapi tulisannya masih gitu juga,,
    terima kasih banyak sebelumnya...
    Last edited by gila_toku; 14-08-2011 at 10:13 PM.

  4. Who Said Thanks:


  5. #5734

    Join Date
    Aug 2011
    Location
    Bontang
    Posts
    3
    Thank(s)
    0/0
    Rep Power
    0

    Default

    Bro smarty Harry Potter And The Deathly Hallows: Part 1 (2010) 1080p BluRay part 5, 16, 18, 20, 21 broken link. Mohon untuk direupload bro. Makasih ya sebelumnya.

  6. #5735

    Join Date
    Apr 2009
    Location
    Earth
    Posts
    28,624
    Thank(s)
    186/154,278
    Blog Entries
    2
    Rep Power
    47

    Default

    Charlie's Angels (2000) 1080p DTS-WiKi

    Show INFO
    Code:
    General
    Unique ID                        : 203321627807422191679793879904614550169 (0x98F65235CF8E31988478B85EBE7B0A99)
    Format                           : Matroska
    File size                        : 8.73 GiB
    Duration                         : 1h 38mn
    Overall bit rate                 : 12.7 Mbps
    Encoded date                     : UTC 2010-06-26 14:45:31
    Writing application              : mkvmerge v3.2.0 ('Beginnings') built on Feb 12 2010 16:46:17
    Writing library                  : libebml v0.7.9 + libmatroska v0.8.1
    
    Video
    ID                               : 1
    Format                           : AVC
    Format/Info                      : Advanced Video Codec
    Format profile                   : High@L4.1
    Format settings, CABAC           : Yes
    Format settings, ReFrames        : 5 frames
    Codec ID                         : V_MPEG4/ISO/AVC
    Duration                         : 1h 38mn
    Bit rate                         : 11.0 Mbps
    Width                            : 1 920 pixels
    Height                           : 800 pixels
    Display aspect ratio             : 2.40:1
    Frame rate                       : 23.976 fps
    Color space                      : YUV
    Chroma subsampling               : 4:2:0
    Bit depth                        : 8 bits
    Scan type                        : Progressive
    Bits/(Pixel*Frame)               : 0.299
    Stream size                      : 7.39 GiB (85%)
    Title                            : x264_L4.1 @ 11022 Kbps
    Writing library                  : x264 core 96 r1613 81e75e9
    Encoding settings                : cabac=1 / ref=5 / deblock=1:-3:-3 / analyse=0x3:0x113 / me=umh / subme=9 / psy=1 / psy_rd=1.00:0.00 / mixed_ref=1 / me_range=32 / chroma_me=1 / trellis=2 / 8x8dct=1 / cqm=0 / deadzone=21,11 / fast_pskip=0 / chroma_qp_offset=-4 / threads=12 / sliced_threads=0 / nr=0 / decimate=0 / interlaced=0 / constrained_intra=0 / bframes=5 / b_pyramid=2 / b_adapt=2 / b_bias=0 / direct=3 / weightb=1 / weightp=2 / keyint=250 / keyint_min=25 / scenecut=40 / intra_refresh=0 / rc_lookahead=50 / rc=2pass / mbtree=1 / bitrate=11022 / ratetol=1.0 / qcomp=0.60 / qpmin=10 / qpmax=51 / qpstep=4 / cplxblur=20.0 / qblur=0.5 / ip_ratio=1.40 / aq=1:0.90
    Language                         : English
    
    Audio #1
    ID                               : 2
    Format                           : DTS
    Format/Info                      : Digital Theater Systems
    Codec ID                         : A_DTS
    Duration                         : 1h 38mn
    Bit rate mode                    : Constant
    Bit rate                         : 1 510 Kbps
    Channel(s)                       : 6 channels
    Channel positions                : Front: L C R, Side: L R, LFE
    Sampling rate                    : 48.0 KHz
    Bit depth                        : 24 bits
    Compression mode                 : Lossy
    Stream size                      : 1.04 GiB (12%)
    Title                            : English DTS 5.1 @ 1.5 Mbps
    Language                         : English
    
    Audio #2
    ID                               : 4
    Format                           : AC-3
    Format/Info                      : Audio Coding 3
    Format profile                   : Dolby Digital
    Mode extension                   : CM (complete main)
    Codec ID                         : A_AC3
    Duration                         : 1h 38mn
    Bit rate mode                    : Constant
    Bit rate                         : 192 Kbps
    Channel(s)                       : 2 channels
    Channel positions                : Front: L R
    Sampling rate                    : 48.0 KHz
    Bit depth                        : 16 bits
    Compression mode                 : Lossy
    Stream size                      : 135 MiB (2%)
    Title                            : English Commentary Dolby Digital 2.0 @ 192 Kbps
    Language                         : English
    
    Text #1
    ID                               : 3
    Format                           : UTF-8
    Codec ID                         : S_TEXT/UTF8
    Codec ID/Info                    : UTF-8 Plain Text
    Title                            : English
    Language                         : English
    
    Text #2
    ID                               : 5
    Format                           : UTF-8
    Codec ID                         : S_TEXT/UTF8
    Codec ID/Info                    : UTF-8 Plain Text
    Title                            : English Commentary
    Language                         : English
    
    Menu
    00:00:00.000                     : en:00:00:00.000
    00:05:23.448                     : en:00:05:23.448
    00:11:30.607                     : en:00:11:30.607
    00:18:14.093                     : en:00:18:14.093
    00:23:14.602                     : en:00:23:14.602
    00:28:45.474                     : en:00:28:45.474
    00:35:33.548                     : en:00:35:33.548
    00:39:43.673                     : en:00:39:43.673
    00:48:38.749                     : en:00:48:38.749
    00:52:18.677                     : en:00:52:18.677
    00:59:11.465                     : en:00:59:11.465
    01:03:02.737                     : en:01:03:02.737
    01:10:10.164                     : en:01:10:10.164
    01:15:42.079                     : en:01:15:42.079
    01:20:49.386                     : en:01:20:49.386
    01:23:20.078                     : en:01:23:20.078
    
    

    Show DOWNLOAD

    Code:
    SILAHKAN DIBACA DAHULU
    Download semua file. Join dengan HJSplit
    Untuk tanya masalah server IDWS silahkan ke SINI
    Cek Checksum pakai exactfile
    Bingung cara checksum? Bisa di cek disini
    
    Kalo ada masalah silahkan lapor via PM atau VM
    
    You must click 'Thank You' before you can see the data contained here.
    You do not have sufficient rights to see the hidden data contained here.
    Last edited by Thinl; 24-05-2012 at 09:54 AM.

  7. Who Said Thanks:

    There are too many to display.

  8. #5736

    Join Date
    Mar 2011
    Location
    jakarta
    Posts
    54
    Thank(s)
    0/5
    Rep Power
    0

    Default

    Quote Originally Posted by Thinl View Post
    itu apa ya? motherboard ato laptop ato netbook?
    motherboard itu gan,sejenis intel atom tapi ini amd fusion dual core 1,6ghz and vga 6310 1 chip procesor ama vganya,,,bingung filmnya yang eror apa komp ngga kuat soalnya liat diboxnya bisa play 1080p

  9. #5737

    Join Date
    Apr 2009
    Location
    Earth
    Posts
    28,624
    Thank(s)
    124/154,278
    Blog Entries
    2
    Rep Power
    47

    Default

    You Me And Dupree (2006) 1080p

    Show INFO
    Code:
    General
    Unique ID                        : 246284772657586084082238718671130321583 (0xB948B8CB368937F9A2BB26F97681E2AF)
    Format                           : Matroska
    File size                        : 7.94 GiB
    Duration                         : 1h 49mn
    Overall bit rate                 : 10.4 Mbps
    Encoded date                     : UTC 2010-10-07 14:08:47
    Writing application              : mkvmerge v3.3.0 ('Language') built on Mar 24 2010 14:59:24
    Writing library                  : libebml v0.8.0 + libmatroska v0.9.0
    
    Video
    ID                               : 1
    Format                           : AVC
    Format/Info                      : Advanced Video Codec
    Format profile                   : High@L4.1
    Format settings, CABAC           : Yes
    Format settings, ReFrames        : 4 frames
    Codec ID                         : V_MPEG4/ISO/AVC
    Duration                         : 1h 49mn
    Bit rate                         : 8 883 Kbps
    Width                            : 1 920 pixels
    Height                           : 1 040 pixels
    Display aspect ratio             : 16:9
    Frame rate                       : 23.976 fps
    Color space                      : YUV
    Chroma subsampling               : 4:2:0
    Bit depth                        : 8 bits
    Scan type                        : Progressive
    Bits/(Pixel*Frame)               : 0.186
    Stream size                      : 6.63 GiB (83%)
    Writing library                  : x264 core 105 r1724 b02df7b
    Encoding settings                : cabac=1 / ref=4 / deblock=1:-1:-1 / analyse=0x3:0x113 / me=umh / subme=7 / psy=1 / psy_rd=1.00:0.00 / mixed_ref=1 / me_range=16 / chroma_me=1 / trellis=1 / 8x8dct=1 / cqm=0 / deadzone=21,11 / fast_pskip=1 / chroma_qp_offset=-2 / threads=12 / sliced_threads=0 / nr=0 / decimate=1 / interlaced=0 / constrained_intra=0 / bframes=3 / b_pyramid=2 / b_adapt=2 / b_bias=0 / direct=3 / weightb=1 / open_gop=0 / weightp=2 / keyint=250 / keyint_min=23 / scenecut=40 / intra_refresh=0 / rc_lookahead=40 / rc=2pass / mbtree=1 / bitrate=8883 / ratetol=1.0 / qcomp=0.60 / qpmin=10 / qpmax=51 / qpstep=4 / cplxblur=20.0 / qblur=0.5 / vbv_maxrate=50000 / vbv_bufsize=50000 / ip_ratio=1.40 / aq=1:1.00 / nal_hrd=none
    Language                         : English
    
    Audio
    ID                               : 2
    Format                           : DTS
    Format/Info                      : Digital Theater Systems
    Codec ID                         : A_DTS
    Duration                         : 1h 49mn
    Bit rate mode                    : Constant
    Bit rate                         : 1 510 Kbps
    Channel(s)                       : 6 channels
    Channel positions                : Front: L C R, Side: L R, LFE
    Sampling rate                    : 48.0 KHz
    Bit depth                        : 24 bits
    Compression mode                 : Lossy
    Stream size                      : 1.15 GiB (15%)
    Language                         : English
    
    

    Show DOWNLOAD

    Code:
    SILAHKAN DIBACA DAHULU
    Download semua file. Join dengan HJSplit
    Untuk tanya masalah server IDWS silahkan ke SINI
    Cek Checksum pakai exactfile
    Bingung cara checksum? Bisa di cek disini
    
    Kalo ada masalah silahkan lapor via PM atau VM
    
    You must click 'Thank You' before you can see the data contained here.
    You do not have sufficient rights to see the hidden data contained here.

    Last edited by Thinl; 24-05-2012 at 09:58 AM.

  10. Who Said Thanks:

    There are too many to display.

  11. #5738

    Join Date
    Apr 2009
    Location
    Earth
    Posts
    28,624
    Thank(s)
    1/154,278
    Blog Entries
    2
    Rep Power
    47

    Default

    Quote Originally Posted by logarit View Post
    motherboard itu gan,sejenis intel atom tapi ini amd fusion dual core 1,6ghz and vga 6310 1 chip procesor ama vganya,,,bingung filmnya yang eror apa komp ngga kuat soalnya liat diboxnya bisa play 1080p
    player pake apa? MPC, tapi klo sejenis itu sih kayaknya emang agak lag ya, kecuali bro ada tambahan vga addon

  12. Who Said Thanks:


  13. #5739

    Join Date
    Mar 2011
    Location
    jakarta
    Posts
    54
    Thank(s)
    0/5
    Rep Power
    0

    Default

    Quote Originally Posted by Thinl View Post
    player pake apa? MPC, tapi klo sejenis itu sih kayaknya emang agak lag ya, kecuali bro ada tambahan vga addon
    ia ane pake MPC
    kalo pake MPC bisa ngga sih,pas play movienya yang kerja vga gitu kalo boleh minta caranya thx

  14. #5740

    Join Date
    Apr 2009
    Location
    Earth
    Posts
    28,624
    Thank(s)
    0/154,278
    Blog Entries
    2
    Rep Power
    47

    Default

    Quote Originally Posted by logarit View Post
    ia ane pake MPC
    kalo pake MPC bisa ngga sih,pas play movienya yang kerja vga gitu kalo boleh minta caranya thx
    ini settingan ditempat saya dengan windows 7 64bit, yang penting waktu play dipojok kiri bawa ada tulisan DXVA itu berarti vga yang uda handle
    Show gambar

Page 574 of 583 FirstFirst ... 74474524564570571572573574575576577578 ... LastLast

Bookmarks

Posting Permissions

  • You may not post new threads
  • You may not post replies
  • You may not post attachments
  • You may not edit your posts
  •  
Indowebster is proudly powered by PT. Gudang Data Indonesia