Page 581 of 583 FirstFirst ... 81481531571577578579580581582583 LastLast
Results 5,801 to 5,810 of 5830

Thread: [Archive] HD Collection | Lokal ONLY | I
http://idws.in/18136

  1. #5801

    Join Date
    Oct 2009
    Location
    Jember-Surabaya
    Posts
    686
    Thank(s)
    1/4,047
    Rep Power
    5

    Default

    lapor....

    yang sudah berhasil saya donlot:
    1. Pirates.Of.The.Caribbean.The.Curse.Of.The.Black.Pe arl.2003.720p.BluRay.x264-SiNNERS.mkv = 7,94 gb.
    2. Step.Up.2006.720p.BRRip.XviD.AC3-FLAWL3SS.avi = 2,55 gb.
    3. Step.Up.2.The.Streets.2008.720p.BRRip.XviD.AC3-FLAWL3SS.avi = 2,42 gb.
    4. Step.Up.3.1080p.mkv = 7,94 gb
    5. re-Despicable.Me.720p.Bluray.x264-CBGB.mkv = 4,36 gb.

    part2 yang belum bisa didonlot:
    1. The.Illusionist.2010.720P.Bluray.x264.DTS-HDChina.mkv (part 2) punya-ny bung AnthraX
    2. AAD.2009.EC.BR.1080p.DTS-WiKi (Angel And Demons) part 22 dengan part 28 = punya-ny streams, indikatornya stelah ada link donlotny selanjutnya menjadi "the page is not found"

    "Something has triggered missing webpage on your website. This is the default 404 error page for nginx that is distributed with Fedora. It is located /usr/share/nginx/html/404.html
    You should customize this error page for your own site or edit the error_page directive in the nginx configuration file /etc/nginx/nginx.conf."

    3. Iron.Man.2.2010.720p.BluRay.x264-WiKi (masih storage maintenance) = punya-ny bung AnthraX


    laporan selesai.

    ucapan terimakasih untuk semua uploader,
    mohon diberitaukan apa bila link yang tidak bisa didonlot sudah benar, soalny tinggal part2 itu saja yang blm didonlot.

    terima kasih banyak...

  2. Who Said Thanks:


  3. #5802

    Join Date
    Mar 2009
    Location
    Surabaya
    Posts
    47
    Thank(s)
    8/18
    Rep Power
    0

    Default

    Quote Originally Posted by Nattacker View Post
    Rango [EXTENDED][2011][720p][Bluray][x264][VeDeTT]




    Code:
    #........................................................................................................................................................#
    ..........................................................................................................................................................
    ..........................................................................................................................................................
    ...............+$$$$$#......+$$$$$#....$$$$$$$$$$$$$$#.....+$$$$$$$$$$$$+.........+$$$$$$$$$$$$$$+..#$$$$$$$$$$$$$$$$$+..$$$$$$$$$$$$$$$$$+...............
    ................$$$$$$......$$$$$+.....$$$$$$$$$$$$$$+.....+$$$$$$$$$$$$$$$.......+$$$$$$$$$$$$$$+..#$$$$$$$$$$$$$$$$$+..$$$$$$$$$$$$$$$$$+...............
    ................#$$$$$+....+$$$$$......$$$$$+..............+$$$$$....#$$$$$$+.....+$$$$$#.................#$$$$$+..............$$$$$+.....................
    .................+$$$$$...#$$$$$#......$$$$$+..............+$$$$$......+$$$$$#....+$$$$$#.................#$$$$$+..............$$$$$+.....................
    ..................$$$$$+..$$$$$$.......$$$$$+..............+$$$$$.......$$$$$$....+$$$$$#.................#$$$$$+..............$$$$$+.....................
    ..................#$$$$$##$$$$$........$$$$$$$$$$$$$+......+$$$$$.......$$$$$$....+$$$$$$$$$$$$$$.........#$$$$$+..............$$$$$+.....................
    ...................+$$$$$$$$$$+........$$$$$$$$$$$$$+......+$$$$$.......+$$$$$....+$$$$$$$$$$$$$$.........#$$$$$+..............$$$$$+.....................
    ....................$$$$$$$$$$.........$$$$$+..............+$$$$$.......$$$$$$....+$$$$$#.................#$$$$$+..............$$$$$+.....................
    ....................#$$$$$$$$#.........$$$$$+..............+$$$$$......#$$$$$+....+$$$$$#.................#$$$$$+..............$$$$$+.....................
    .....................+$$$$$$+..........$$$$$+..............+$$$$$......$$$$$$.....+$$$$$#.................#$$$$$+..............$$$$$+.....................
    ......................$$$$$$...........$$$$$+########......+$$$$$#.#+$$$$$$$......+$$$$$##########........#$$$$$+..............$$$$$+.....................
    ......................#$$$$#...........$$$$$$$$$$$$$$+.....+$$$$$$$$$$$$$$#.......+$$$$$$$$$$$$$$$........#$$$$$+..............$$$$$+.....................
    .......................+$$+............$$$$$$$$$$$$$$+.....+$$$$$$$$$$+#..........+$$$$$$$$$$$$$$$........#$$$$$+..............$$$$$+.....................
    ..........................................................................................................................................................
    ..........................................................................................................................................................
    #........................................................................................................................................................#
    ..........................................................................................................................................................
    ..........................................................................................................................................................
    ..........................................................................................................................................................
    ..........................................................................................................................................................
    ..........................................................................................................................................................
    ..........................................................................................................................................................
    ...............                                                                                                                            ...............
    ...............                          Release Name........: Rango.2011.720p.Bluray.x264-VeDeTT                                          ...............
    ...............                          Resolution .........: 1280x528                                                                    ...............
    ...............                          Video Bitrate ..... : 4086 kbps                                                                   ...............
    ...............                          Audio Bitrate ......: 5.1 DTS                                                                     ...............
    ...............                          Frame Rate ........ : 23.976 fps                                                                  ...............
    ...............                          Language ...........: ENGLISH                                                                     ...............
    ...............                          Subtitles ..........: ENGLISH                                                                     ...............
    ...............                          Duration............: 01:51:50                                                                    ...............
    ...............                          File size ..........: 4,37 GB                                                                     ...............
    ...............                          URL.................: http://www.imdb.com/title/tt1192628/                                        ...............
    ...............                                                                                                                            ...............
    ...............                         Genre: Animation | Adventure | Comedy                                           ............... 
    ...............                         IMDB rating: 7.6/10 (21,864 votes)                                                 ............... 
    ...............                         Directed by: Gore Verbinski                                                             ............... 
    ...............                         Starring: Johnny Depp, Isla Fisher, Abigail Breslin, Ned Beatty           ...............
    *** hidden content ***

    INI VERSI EXTENDED CUT YA :-D..
    Kasi REP ya :-D


    Code:
    Join with HJSplit or File Splitter & Joiner and play movie!!! Enjoy :)
    Part 17 - 21 kenapa tdk bisa didownload??
    Last edited by AnthraX; 20-08-2011 at 12:39 AM.

  4. #5803

    Join Date
    Jul 2011
    Location
    dimana saja
    Posts
    1,262
    Thank(s)
    145/61,019
    Rep Power
    4

    Default

    The.Whistleblower.2010.720p.Bluray.x264-TDP


    Show INFO

    Code:
    General
    Unique ID                        : 180924147839576871572305446415498397696 (0x881CB930A837BC39BD5A0AA95382C800)
    Complete name                    : The.Whistleblower.2010.720p.Bluray.x264-TDP.mkv
    Format                           : Matroska
    File size                        : 5.74 GiB
    Duration                         : 1h 51mn
    Overall bit rate                 : 7 350 Kbps
    Encoded date                     : UTC 2011-08-14 14:14:11
    Writing application              : mkvmerge v4.8.0 ('I Got The...') built on May 24 2011 03:12:58
    Writing library                  : libebml v1.2.0 + libmatroska v1.1.0
    
    Video
    ID                               : 1
    Format                           : AVC
    Format/Info                      : Advanced Video Codec
    Format profile                   : High@L3.1
    Format settings, CABAC           : Yes
    Format settings, ReFrames        : 4 frames
    Format settings, GOP             : M=4, N=43
    Muxing mode                      : Header stripping
    Codec ID                         : V_MPEG4/ISO/AVC
    Duration                         : 1h 51mn
    Bit rate                         : 5 694 Kbps
    Nominal bit rate                 : 5 999 Kbps
    Width                            : 1 280 pixels
    Height                           : 720 pixels
    Display aspect ratio             : 16:9
    Frame rate                       : 23.976 fps
    Color space                      : YUV
    Chroma subsampling               : 4:2:0
    Bit depth                        : 8 bits
    Scan type                        : Progressive
    Bits/(Pixel*Frame)               : 0.258
    Stream size                      : 4.44 GiB (77%)
    Title                            : TDP - The Devil's Favorite Pirate
    Writing library                  : x264 core 105 r1724 b02df7b
    Encoding settings                : cabac=1 / ref=3 / deblock=1:-1:-1 / analyse=0x3:0x113 / me=hex / subme=7 / psy=1 / psy_rd=1.00:0.15 / mixed_ref=1 / me_range=16 / chroma_me=1 / trellis=1 / 8x8dct=1 / cqm=0 / deadzone=21,11 / fast_pskip=1 / chroma_qp_offset=-3 / threads=12 / sliced_threads=0 / nr=0 / decimate=1 / interlaced=0 / constrained_intra=0 / bframes=3 / b_pyramid=2 / b_adapt=1 / b_bias=0 / direct=1 / weightb=1 / open_gop=0 / weightp=2 / keyint=250 / keyint_min=23 / scenecut=40 / intra_refresh=0 / rc_lookahead=40 / rc=abr / mbtree=1 / bitrate=5999 / ratetol=1.0 / qcomp=0.60 / qpmin=10 / qpmax=51 / qpstep=4 / ip_ratio=1.40 / aq=1:1.00
    
    Audio
    ID                               : 2
    Format                           : DTS
    Format/Info                      : Digital Theater Systems
    Muxing mode                      : Header stripping
    Codec ID                         : A_DTS
    Duration                         : 1h 51mn
    Bit rate mode                    : Constant
    Bit rate                         : 1 510 Kbps
    Channel(s)                       : 6 channels
    Channel positions                : Front: L C R, Side: L R, LFE
    Sampling rate                    : 48.0 KHz
    Bit depth                        : 24 bits
    Compression mode                 : Lossy
    Delay relative to video          : 11ms
    Stream size                      : 1.18 GiB (21%)
    Title                            : TDP - The Devil's Favorite Pirate
    Language                         : English
    
    Text
    ID                               : 3
    Format                           : VobSub
    Muxing mode                      : zlib
    Codec ID                         : S_VOBSUB
    Codec ID/Info                    : The same subtitle format used on DVDs
    Title                            : TDP - The Devil's Favorite Pirate
    Language                         : English
    
    Menu
    00:00:00.000                     : en:00:00:00.000
    00:10:25.458                     : en:00:10:25.458
    00:20:33.607                     : en:00:20:33.607
    00:29:03.784                     : en:00:29:03.784
    00:39:27.991                     : en:00:39:27.991
    00:49:07.236                     : en:00:49:07.236
    00:59:32.486                     : en:00:59:32.486
    01:08:53.713                     : en:01:08:53.713
    01:18:40.799                     : en:01:18:40.799
    01:28:03.153                     : en:01:28:03.153
    01:38:32.240                     : en:01:38:32.240
    01:47:17.181                     : en:01:47:17.181



    You must click 'Thank You' before you can see the data contained here.
    You do not have sufficient rights to see the hidden data contained here.


    Code:
    * Download semua file dan join dengan HJSplit
    Last edited by Semplice; 23-09-2011 at 09:23 PM. Reason: reupload

  5. Who Said Thanks:

    There are too many to display.

  6. #5804

    Join Date
    Jul 2011
    Location
    dimana saja
    Posts
    1,262
    Thank(s)
    166/61,019
    Rep Power
    4

    Default

    Behind.Enemy.Lines.2001.720p.BluRay.DTS.x264-ESiR


    Show INFO

    Code:
    General
    Unique ID                        : 251513497121199995959512489636654970584 (0xBD37BCD03AB4601689B3BEAE5E5F76D8)
    Complete name                    : Behind.Enemy.Lines.2001.720p.BluRay.DTS.x264-ESiR.mkv
    Format                           : Matroska
    File size                        : 6.84 GiB
    Duration                         : 1h 45mn
    Overall bit rate                 : 9 261 Kbps
    Encoded date                     : UTC 2007-10-31 16:31:36
    Writing application              : mkvmerge v2.1.0 ('Another Place To Fall') built on Aug 19 2007 13:40:07
    Writing library                  : libebml v0.7.7 + libmatroska v0.8.1
    
    Video
    ID                               : 1
    Format                           : AVC
    Format/Info                      : Advanced Video Codec
    Format profile                   : High@L5.1
    Format settings, CABAC           : Yes
    Format settings, ReFrames        : 8 frames
    Codec ID                         : V_MPEG4/ISO/AVC
    Duration                         : 1h 45mn
    Bit rate                         : 7 363 Kbps
    Width                            : 1 280 pixels
    Height                           : 544 pixels
    Display aspect ratio             : 2.35:1
    Frame rate                       : 23.976 fps
    Color space                      : YUV
    Chroma subsampling               : 4:2:0
    Bit depth                        : 8 bits
    Scan type                        : Progressive
    Bits/(Pixel*Frame)               : 0.441
    Stream size                      : 5.31 GiB (78%)
    Writing library                  : x264 core 54 svn-618
    Encoding settings                : cabac=1 / ref=5 / deblock=1:-3:-3 / analyse=0x3:0x113 / me=hex / subme=7 / brdo=1 / mixed_ref=1 / me_range=16 / 
    
    chroma_me=1 / trellis=1 / 8x8dct=1 / cqm=2 / deadzone=21,11 / chroma_qp_offset=0 / threads=3 / nr=0 / decimate=1 / mbaff=0 / bframes=3 / b_pyramid=1 / 
    
    b_adapt=1 / b_bias=0 / direct=1 / wpredb=1 / bime=1 / keyint=250 / keyint_min=25 / scenecut=40(pre) / rc=2pass / bitrate=7363 / ratetol=1.0 / 
    
    rceq='blurCplx^(1-qComp)' / qcomp=0.60 / qpmin=10 / qpmax=51 / qpstep=4 / cplxblur=20.0 / qblur=0.5 / ip_ratio=1.40 / pb_ratio=1.30
    Language                         : English
    
    Audio #1
    ID                               : 2
    Format                           : AC-3
    Format/Info                      : Audio Coding 3
    Mode extension                   : CM (complete main)
    Codec ID                         : A_AC3
    Duration                         : 1h 45mn
    Bit rate mode                    : Constant
    Bit rate                         : 384 Kbps
    Channel(s)                       : 6 channels
    Channel positions                : Front: L C R, Side: L R, LFE
    Sampling rate                    : 48.0 KHz
    Bit depth                        : 16 bits
    Compression mode                 : Lossy
    Delay relative to video          : 32ms
    Stream size                      : 291 MiB (4%)
    Title                            : Russian
    Language                         : Russian
    
    Audio #2
    ID                               : 3
    Format                           : DTS
    Format/Info                      : Digital Theater Systems
    Codec ID                         : A_DTS
    Duration                         : 1h 45mn
    Bit rate mode                    : Constant
    Bit rate                         : 1 510 Kbps
    Channel(s)                       : 6 channels
    Channel positions                : Front: L C R, Side: L R, LFE
    Sampling rate                    : 48.0 KHz
    Bit depth                        : 24 bits
    Compression mode                 : Lossy
    Stream size                      : 1.12 GiB (16%)
    Title                            : DTS 5.1
    Language                         : English
    
    Text #1
    ID                               : 4
    Format                           : UTF-8
    Codec ID                         : S_TEXT/UTF8
    Codec ID/Info                    : UTF-8 Plain Text
    Language                         : English
    
    Text #2
    ID                               : 5
    Format                           : UTF-8
    Codec ID                         : S_TEXT/UTF8
    Codec ID/Info                    : UTF-8 Plain Text
    Language                         : Spanish
    
    Text #3
    ID                               : 6
    Format                           : UTF-8
    Codec ID                         : S_TEXT/UTF8
    Codec ID/Info                    : UTF-8 Plain Text
    Language                         : Swedish
    
    Text #4
    ID                               : 7
    Format                           : UTF-8
    Codec ID                         : S_TEXT/UTF8
    Codec ID/Info                    : UTF-8 Plain Text
    Language                         : Norwegian
    
    Text #5
    ID                               : 8
    Format                           : UTF-8
    Codec ID                         : S_TEXT/UTF8
    Codec ID/Info                    : UTF-8 Plain Text
    Language                         : Finnish
    
    Text #6
    ID                               : 9
    Format                           : UTF-8
    Codec ID                         : S_TEXT/UTF8
    Codec ID/Info                    : UTF-8 Plain Text
    Language                         : Danish



    You must click 'Thank You' before you can see the data contained here.
    You do not have sufficient rights to see the hidden data contained here.


    Code:
    * Download semua file dan join dengan HJSplit
    Last edited by Semplice; 28-09-2011 at 09:23 PM. Reason: reupload

  7. Who Said Thanks:

    There are too many to display.

  8. #5805

    Join Date
    May 2009
    Location
    West Java
    Posts
    1,051
    Thank(s)
    20/141,200
    Rep Power
    6

    Default

    And Soon the Darkness 1080p Blu-Ray(2010)


    Show Information

    IMDB:
    Code:
    http://www.imdb.com/title/tt1391034/
    Director: Marcos Efron
    Genre: Crime, Horror, Mystery

    Cast
    Amber Heard ... Stephanie
    Odette Annable ... Ellie
    Karl Urban ... Michael

    General

    Format : Matroska
    File size : 7.92 GiB
    Duration : 1h 31mn
    Overall bit rate : 12.4 Mbps
    Encoded date : UTC 2010-12-19 07:04:10
    Writing application : mkvmerge v2.9.7 ('Tenderness') built on Jul 1 2009 18:43:35
    Writing library : libebml v0.7.7 + libmatroska v0.8.1
    Video #1
    ID : 1
    Format : AVC
    Format/Info : Advanced Video Codec
    Format profile : High@L4.1
    Format settings, CABAC : Yes
    Format settings, ReFrames : 5 frames
    Muxing mode : Container profile=Unknown@4.1
    Codec ID : V_MPEG4/ISO/AVC
    Duration : 1h 31mn
    Bit rate : 10.7 Mbps
    Nominal bit rate : 10.9 Mbps
    Width : 1 920 pixels
    Height : 800 pixels
    Display aspect ratio : 2.40:1
    Frame rate : 23.976 fps
    Resolution : 24 bits
    Colorimetry : 4:2:0
    Scan type : Progressive
    Bits/(Pixel*Frame) : 0.290
    Stream size : 6.80 GiB (86%)
    Title : And.Soon.the.Darkness.2010.BluRay.1080p.DTS.x264-CHD
    Writing library : x264 core 110 r1804 e89c4cf
    Encoding settings : cabac=1 / ref=5 / deblock=1:-3:-3 / analyse=0x3:0x113 / me=umh / subme=9 / psy=1 / psy_rd=1.10:0.15 / mixed_ref=1 / me_range=48 / chroma_me=1 / trellis=2 / 8x8dct=1 / cqm=0 / deadzone=21,11 / fast_pskip=0 / chroma_qp_offset=-2 / threads=12 / sliced_threads=0 / nr=0 / decimate=1 / interlaced=0 / constrained_intra=0 / bframes=6 / b_pyramid=2 / b_adapt=2 / b_bias=0 / direct=3 / weightb=1 / open_gop=0 / weightp=2 / keyint=250 / keyint_min=23 / scenecut=40 / intra_refresh=0 / rc_lookahead=40 / rc=2pass / mbtree=0 / bitrate=10924 / ratetol=1.0 / qcomp=0.70 / qpmin=0 / qpmax=51 / qpstep=4 / cplxblur=20.0 / qblur=0.5 / vbv_maxrate=45000 / vbv_bufsize=40000 / ip_ratio=1.40 / pb_ratio=1.30 / aq=1:0.90 / nal_hrd=none
    Language : English
    Audio #2
    ID : 2
    Format : DTS
    Format/Info : Digital Theater Systems
    Codec ID : A_DTS
    Duration : 1h 31mn
    Bit rate mode : Constant
    Bit rate : 1 510 Kbps
    Channel(s) : 6 channels
    Channel positions : Front: L C R, Surround: L R, LFE
    Sampling rate : 48.0 KHz
    Resolution : 24 bits
    Stream size : 986 MiB (12%)
    Title : DTS 5.1CH 1536Kbps
    Language : English


    Show Maknyos

    Code:
    http://www.maknyos.com/9ozratd24qwa/asatd.1080p.DarkdiabloZ.part01-maknyos.com.rar.html
    http://www.maknyos.com/7rqcmd3pkwgt/asatd.1080p.DarkdiabloZ.part02-maknyos.com.rar.html
    http://www.maknyos.com/02k1yozffzaa/asatd.1080p.DarkdiabloZ.part03-maknyos.com.rar.html
    http://www.maknyos.com/fqldzot1gtia/asatd.1080p.DarkdiabloZ.part04-maknyos.com.rar.html
    http://www.maknyos.com/v9oxqdp3fjlx/asatd.1080p.DarkdiabloZ.part05-maknyos.com.rar.html
    http://www.maknyos.com/5upqfz769icr/asatd.1080p.DarkdiabloZ.part06-maknyos.com.rar.html
    http://www.maknyos.com/dyj9474r1ft2/asatd.1080p.DarkdiabloZ.part07-maknyos.com.rar.html
    http://www.maknyos.com/ci3ygd17zvk9/asatd.1080p.DarkdiabloZ.part08-maknyos.com.rar.html
    http://www.maknyos.com/8p7oa64zqh9t/asatd.1080p.DarkdiabloZ.part09-maknyos.com.rar.html
    http://www.maknyos.com/hqzzdny6v7tw/asatd.1080p.DarkdiabloZ.part10-maknyos.com.rar.html
    http://www.maknyos.com/2sv910wwgd90/asatd.1080p.DarkdiabloZ.part11-maknyos.com.rar.html
    http://www.maknyos.com/4k6d7ytxutou/asatd.1080p.DarkdiabloZ.part12-maknyos.com.rar.html
    http://www.maknyos.com/j4fvv4uv6cqm/asatd.1080p.DarkdiabloZ.part13-maknyos.com.rar.html
    http://www.maknyos.com/5ohztmz77jcx/asatd.1080p.DarkdiabloZ.part14-maknyos.com.rar.html
    http://www.maknyos.com/7k4ii5ozp81z/asatd.1080p.DarkdiabloZ.part15-maknyos.com.rar.html
    http://www.maknyos.com/n5lgsbaz0f6b/asatd.1080p.DarkdiabloZ.part16-maknyos.com.rar.html
    http://www.maknyos.com/h9ldzosy7z5q/asatd.1080p.DarkdiabloZ.part17-maknyos.com.rar.html
    http://www.maknyos.com/n018x3jpr4dt/asatd.1080p.DarkdiabloZ.part18-maknyos.com.rar.html
    http://www.maknyos.com/6e39hfjk5cn1/asatd.1080p.DarkdiabloZ.part19-maknyos.com.rar.html
    http://www.maknyos.com/00wzhg47d4u6/asatd.1080p.DarkdiabloZ.part20-maknyos.com.rar.html
    http://www.maknyos.com/fjpgpzvrv5tt/asatd.1080p.DarkdiabloZ.part21-maknyos.com.rar.html
    http://www.maknyos.com/6onz3np1ca7m/asatd.1080p.DarkdiabloZ.part22-maknyos.com.rar.html
    http://www.maknyos.com/tmjrg79scx1q/asatd.1080p.DarkdiabloZ.part23-maknyos.com.rar.html
    http://www.maknyos.com/g96sxb8fswng/asatd.1080p.DarkdiabloZ.part24-maknyos.com.rar.html
    http://www.maknyos.com/fjj5cwr05ab6/asatd.1080p.DarkdiabloZ.part25-maknyos.com.rar.html
    http://www.maknyos.com/xvuodwixkf01/asatd.1080p.DarkdiabloZ.part26-maknyos.com.rar.html
    http://www.maknyos.com/wrw5k0buecr6/asatd.1080p.DarkdiabloZ.part27-maknyos.com.rar.html
    http://www.maknyos.com/dt5d7cwidb7i/asatd.1080p.DarkdiabloZ.part28-maknyos.com.rar.html
    http://www.maknyos.com/6h7kec8fvd1n/asatd.1080p.DarkdiabloZ.part29-maknyos.com.rar.html
    http://www.maknyos.com/27d1pi17s9pc/asatd.1080p.DarkdiabloZ.part30-maknyos.com.rar.html
    http://www.maknyos.com/y3aefhsr8dxk/asatd.1080p.DarkdiabloZ.part31-maknyos.com.rar.html
    http://www.maknyos.com/paitd45s23tc/asatd.1080p.DarkdiabloZ.part32-maknyos.com.rar.html
    http://www.maknyos.com/h43hn1w83ifd/asatd.1080p.DarkdiabloZ.part33-maknyos.com.rar.html
    http://www.maknyos.com/eq4pdq6p8d53/asatd.1080p.DarkdiabloZ.part34-maknyos.com.rar.html
    http://www.maknyos.com/yyycweev4un8/asatd.1080p.DarkdiabloZ.part35-maknyos.com.rar.html
    http://www.maknyos.com/kzvpuu1ade0y/asatd.1080p.DarkdiabloZ.part36-maknyos.com.rar.html
    http://www.maknyos.com/9i7mevurnqvr/asatd.1080p.DarkdiabloZ.part37-maknyos.com.rar.html
    http://www.maknyos.com/0fea7fm1ubhw/asatd.1080p.DarkdiabloZ.part38-maknyos.com.rar.html
    http://www.maknyos.com/amb99c9yr109/asatd.1080p.DarkdiabloZ.part39-maknyos.com.rar.html
    http://www.maknyos.com/q6knxi9zfcux/asatd.1080p.DarkdiabloZ.part40-maknyos.com.rar.html
    http://www.maknyos.com/90jhu5e56wlr/asatd.1080p.DarkdiabloZ.part41-maknyos.com.rar.html
    http://www.maknyos.com/zdqk95h84jr8/asatd.1080p.DarkdiabloZ.part42-maknyos.com.rar.html
    http://www.maknyos.com/ybd6dj0ftozz/asatd.1080p.DarkdiabloZ.part43-maknyos.com.rar.html
    http://www.maknyos.com/flbbv6lrdje8/asatd.1080p.DarkdiabloZ.part44-maknyos.com.rar.html
    http://www.maknyos.com/3habxablyz2c/asatd.1080p.DarkdiabloZ.part45-maknyos.com.rar.html


    Show Password

    DarkdiabloZ
    Last edited by DarkdiabloZ; 19-08-2011 at 11:28 AM.

  9. #5806

    Join Date
    Apr 2009
    Location
    medan oi..
    Posts
    312
    Thank(s)
    0/92
    Rep Power
    0

    Default

    Quote Originally Posted by vahn77 View Post
    Part 17 - 21 kenapa tdk bisa didownload??
    gwa download bisa kok.... coba aja lage...

  10. #5807

    Join Date
    May 2009
    Location
    West Java
    Posts
    1,051
    Thank(s)
    9/141,200
    Rep Power
    6

    Default

    Black Swan 1080p Blu-Ray(2010)




    Show Information

    IMDB:
    Code:
    http://www.imdb.com/title/tt0947798/
    Director: Darren Aronofsky
    Genre: Drama, Mystery, Thriller

    Cast
    Natalie Portman ... Nina Sayers
    Mila Kunis ... Lily
    Vincent Cassel ... Thomas Leroy

    General
    Format : Matroska
    File size : 14.0 GiB
    Duration : 1h 48mn
    Overall bit rate : 18.5 Mbps
    Encoded date : UTC 2011-03-02 05:22:57
    Writing application : mkvmerge v3.2.0 ('Beginnings') ??? Feb 12 2010 16:46:17
    Writing library : libebml v0.7.9 + libmatroska v0.8.1
    Video #1
    ID : 1
    Format : AVC
    Format/Info : Advanced Video Codec
    Format profile : High@L4.1
    Format settings, CABAC : Yes
    Format settings, ReFrames : 5 frames
    Muxing mode : Container profile=Unknown@4.1
    Codec ID : V_MPEG4/ISO/AVC
    Duration : 1h 48mn
    Bit rate : 16.6 Mbps
    Nominal bit rate : 17.0 Mbps
    Width : 1 920 pixels
    Height : 800 pixels
    Display aspect ratio : 2.40:1
    Frame rate : 23.976 fps
    Resolution : 24 bits
    Colorimetry : 4:2:0
    Scan type : Progressive
    Bits/(Pixel*Frame) : 0.452
    Stream size : 12.6 GiB (90%)
    Title : Black.Swan.2010
    Writing library : x264 core 107 r1766 f9f0035
    Encoding settings : cabac=1 / ref=5 / deblock=1:-3:-3 / analyse=0x3:0x113 / me=umh / subme=10 / psy=1 / psy_rd=1.05:0.10 / mixed_ref=1 / me_range=48 / chroma_me=1 / trellis=2 / 8x8dct=1 / cqm=2 / deadzone=21,11 / fast_pskip=0 / chroma_qp_offset=-2 / threads=12 / sliced_threads=0 / nr=0 / decimate=1 / interlaced=0 / constrained_intra=0 / bframes=6 / b_pyramid=2 / b_adapt=2 / b_bias=0 / direct=3 / weightb=1 / open_gop=0 / weightp=2 / keyint=250 / keyint_min=23 / scenecut=40 / intra_refresh=0 / rc_lookahead=50 / rc=2pass / mbtree=1 / bitrate=17025 / ratetol=1.0 / qcomp=0.70 / qpmin=10 / qpmax=51 / qpstep=4 / cplxblur=20.0 / qblur=0.5 / vbv_maxrate=40000 / vbv_bufsize=30000 / ip_ratio=1.40 / aq=1:0.80 / nal_hrd=none
    Language : English
    Audio #2
    ID : 2
    Format : DTS
    Format/Info : Digital Theater Systems
    Codec ID : A_DTS
    Duration : 1h 48mn
    Bit rate mode : Constant
    Bit rate : 1 510 Kbps
    Channel(s) : 6 channels
    Channel positions : Front: L C R, Surround: L R, LFE
    Sampling rate : 48.0 KHz
    Resolution : 24 bits
    Stream size : 1.14 GiB (8%)
    Title : DTS-CORE 1536K
    Language : English


    Show Maknyos

    Code:
    http://www.maknyos.com/4i932rfiki1x/BlackSwan.1080p.DarkdiabloZ.part01-maknyos.com.rar.html
    http://www.maknyos.com/nmyy32ymka1v/BlackSwan.1080p.DarkdiabloZ.part02-maknyos.com.rar.html
    http://www.maknyos.com/0pfmnzfc81g3/BlackSwan.1080p.DarkdiabloZ.part03-maknyos.com.rar.html
    http://www.maknyos.com/99pearjyhhzo/BlackSwan.1080p.DarkdiabloZ.part04-maknyos.com.rar.html
    http://www.maknyos.com/xiup5xl7cj0j/BlackSwan.1080p.DarkdiabloZ.part05-maknyos.com.rar.html
    http://www.maknyos.com/4pv380udjady/BlackSwan.1080p.DarkdiabloZ.part06-maknyos.com.rar.html
    http://www.maknyos.com/vup6qaawu5bo/BlackSwan.1080p.DarkdiabloZ.part07-maknyos.com.rar.html
    http://www.maknyos.com/fc92t5acx46p/BlackSwan.1080p.DarkdiabloZ.part08-maknyos.com.rar.html
    http://www.maknyos.com/7yj8em7x50iz/BlackSwan.1080p.DarkdiabloZ.part09-maknyos.com.rar.html
    http://www.maknyos.com/5gyryrdghku8/BlackSwan.1080p.DarkdiabloZ.part10-maknyos.com.rar.html
    http://www.maknyos.com/8iutejmr40o1/BlackSwan.1080p.DarkdiabloZ.part11-maknyos.com.rar.html
    http://www.maknyos.com/1s8fin7fyir3/BlackSwan.1080p.DarkdiabloZ.part12-maknyos.com.rar.html
    http://www.maknyos.com/ie9atesoqjhh/BlackSwan.1080p.DarkdiabloZ.part13-maknyos.com.rar.html
    http://www.maknyos.com/63v50sy7a2md/BlackSwan.1080p.DarkdiabloZ.part14-maknyos.com.rar.html
    http://www.maknyos.com/ihut4n7mgq6a/BlackSwan.1080p.DarkdiabloZ.part15-maknyos.com.rar.html
    http://www.maknyos.com/h7ddmyw5jjn3/BlackSwan.1080p.DarkdiabloZ.part16-maknyos.com.rar.html
    http://www.maknyos.com/4a9qlqaur0ae/BlackSwan.1080p.DarkdiabloZ.part17-maknyos.com.rar.html
    http://www.maknyos.com/64j1rr3f9u66/BlackSwan.1080p.DarkdiabloZ.part18-maknyos.com.rar.html
    http://www.maknyos.com/rct8zbittyes/BlackSwan.1080p.DarkdiabloZ.part19-maknyos.com.rar.html
    http://www.maknyos.com/twib90k0a1p2/BlackSwan.1080p.DarkdiabloZ.part20-maknyos.com.rar.html
    http://www.maknyos.com/03jt7jvsnpxj/BlackSwan.1080p.DarkdiabloZ.part21-maknyos.com.rar.html
    http://www.maknyos.com/82ozw7su6yii/BlackSwan.1080p.DarkdiabloZ.part22-maknyos.com.rar.html
    http://www.maknyos.com/7nawxtwsisd7/BlackSwan.1080p.DarkdiabloZ.part23-maknyos.com.rar.html
    http://www.maknyos.com/4xx38v92028o/BlackSwan.1080p.DarkdiabloZ.part24-maknyos.com.rar.html
    http://www.maknyos.com/w6yqwdpc3n0m/BlackSwan.1080p.DarkdiabloZ.part25-maknyos.com.rar.html
    http://www.maknyos.com/2e1vzk3tj2yv/BlackSwan.1080p.DarkdiabloZ.part26-maknyos.com.rar.html
    http://www.maknyos.com/k2pyl34s1hpy/BlackSwan.1080p.DarkdiabloZ.part27-maknyos.com.rar.html
    http://www.maknyos.com/xonr2glypz9c/BlackSwan.1080p.DarkdiabloZ.part28-maknyos.com.rar.html
    http://www.maknyos.com/5cf5i56s84x4/BlackSwan.1080p.DarkdiabloZ.part29-maknyos.com.rar.html
    http://www.maknyos.com/eyouh5rirrj7/BlackSwan.1080p.DarkdiabloZ.part30-maknyos.com.rar.html
    http://www.maknyos.com/q2cerh6brhrt/BlackSwan.1080p.DarkdiabloZ.part31-maknyos.com.rar.html
    http://www.maknyos.com/148e6m7nairn/BlackSwan.1080p.DarkdiabloZ.part32-maknyos.com.rar.html
    http://www.maknyos.com/7uk1tfjyaj47/BlackSwan.1080p.DarkdiabloZ.part33-maknyos.com.rar.html
    http://www.maknyos.com/1s57wh9jmxrr/BlackSwan.1080p.DarkdiabloZ.part34-maknyos.com.rar.html
    http://www.maknyos.com/uxv4hgfojpgj/BlackSwan.1080p.DarkdiabloZ.part35-maknyos.com.rar.html
    http://www.maknyos.com/kfbgnueb7e0j/BlackSwan.1080p.DarkdiabloZ.part36-maknyos.com.rar.html
    http://www.maknyos.com/f7jpqzem2dtc/BlackSwan.1080p.DarkdiabloZ.part37-maknyos.com.rar.html
    http://www.maknyos.com/pb8wc2ufou06/BlackSwan.1080p.DarkdiabloZ.part38-maknyos.com.rar.html
    http://www.maknyos.com/alnw782e4yuj/BlackSwan.1080p.DarkdiabloZ.part39-maknyos.com.rar.html
    http://www.maknyos.com/fso0toeogy3e/BlackSwan.1080p.DarkdiabloZ.part40-maknyos.com.rar.html
    http://www.maknyos.com/930yh4oiw5d3/BlackSwan.1080p.DarkdiabloZ.part41-maknyos.com.rar.html
    http://www.maknyos.com/k91slrrpj3h2/BlackSwan.1080p.DarkdiabloZ.part42-maknyos.com.rar.html
    http://www.maknyos.com/r14vtbalb4wv/BlackSwan.1080p.DarkdiabloZ.part43-maknyos.com.rar.html
    http://www.maknyos.com/ctg6ob2q6pr0/BlackSwan.1080p.DarkdiabloZ.part44-maknyos.com.rar.html
    http://www.maknyos.com/dr6o1nt2w3ud/BlackSwan.1080p.DarkdiabloZ.part45-maknyos.com.rar.html
    http://www.maknyos.com/defzrmvn6ypw/BlackSwan.1080p.DarkdiabloZ.part46-maknyos.com.rar.html
    http://www.maknyos.com/m576er4vjvse/BlackSwan.1080p.DarkdiabloZ.part47-maknyos.com.rar.html
    http://www.maknyos.com/kukbnljvzvj3/BlackSwan.1080p.DarkdiabloZ.part48-maknyos.com.rar.html
    http://www.maknyos.com/tyowbpmbyn8o/BlackSwan.1080p.DarkdiabloZ.part49-maknyos.com.rar.html
    http://www.maknyos.com/9vr47jtmdrtr/BlackSwan.1080p.DarkdiabloZ.part50-maknyos.com.rar.html
    http://www.maknyos.com/06sa6m2kisen/BlackSwan.1080p.DarkdiabloZ.part51-maknyos.com.rar.html
    http://www.maknyos.com/ule7qcdbf70o/BlackSwan.1080p.DarkdiabloZ.part52-maknyos.com.rar.html
    http://www.maknyos.com/afx2wo501irb/BlackSwan.1080p.DarkdiabloZ.part53-maknyos.com.rar.html
    http://www.maknyos.com/lsroto29oivp/BlackSwan.1080p.DarkdiabloZ.part54-maknyos.com.rar.html
    http://www.maknyos.com/rvz6aidg0gwr/BlackSwan.1080p.DarkdiabloZ.part55-maknyos.com.rar.html
    http://www.maknyos.com/q2etx8ygzcqf/BlackSwan.1080p.DarkdiabloZ.part56-maknyos.com.rar.html
    http://www.maknyos.com/x0mfy8ijyqb7/BlackSwan.1080p.DarkdiabloZ.part57-maknyos.com.rar.html
    http://www.maknyos.com/ts7yfqld0eil/BlackSwan.1080p.DarkdiabloZ.part58-maknyos.com.rar.html
    http://www.maknyos.com/fy9g0s4knnge/BlackSwan.1080p.DarkdiabloZ.part59-maknyos.com.rar.html
    http://www.maknyos.com/8se89fvjue0a/BlackSwan.1080p.DarkdiabloZ.part60-maknyos.com.rar.html
    http://www.maknyos.com/g1s5f5f9w21x/BlackSwan.1080p.DarkdiabloZ.part61-maknyos.com.rar.html
    http://www.maknyos.com/mbhmnba57bdo/BlackSwan.1080p.DarkdiabloZ.part62-maknyos.com.rar.html
    http://www.maknyos.com/880ok0pjr6ml/BlackSwan.1080p.DarkdiabloZ.part63-maknyos.com.rar.html
    http://www.maknyos.com/wl1b74s68vnv/BlackSwan.1080p.DarkdiabloZ.part64-maknyos.com.rar.html
    http://www.maknyos.com/20nqyij15pjd/BlackSwan.1080p.DarkdiabloZ.part65-maknyos.com.rar.html
    http://www.maknyos.com/hmc8wgajjgbu/BlackSwan.1080p.DarkdiabloZ.part66-maknyos.com.rar.html
    http://www.maknyos.com/7k5wdrz2msu0/BlackSwan.1080p.DarkdiabloZ.part67-maknyos.com.rar.html
    http://www.maknyos.com/qur4ailm3523/BlackSwan.1080p.DarkdiabloZ.part68-maknyos.com.rar.html
    http://www.maknyos.com/h2d1mzj2yg3y/BlackSwan.1080p.DarkdiabloZ.part69-maknyos.com.rar.html
    http://www.maknyos.com/ejzhno7i8xaa/BlackSwan.1080p.DarkdiabloZ.part70-maknyos.com.rar.html
    http://www.maknyos.com/yq3n8zsvp380/BlackSwan.1080p.DarkdiabloZ.part71-maknyos.com.rar.html
    http://www.maknyos.com/w3tpcegjv4l6/BlackSwan.1080p.DarkdiabloZ.part72-maknyos.com.rar.html
    http://www.maknyos.com/bfp6fpbffju4/BlackSwan.1080p.DarkdiabloZ.part73-maknyos.com.rar.html
    http://www.maknyos.com/bcsmem7kyi7s/BlackSwan.1080p.DarkdiabloZ.part74-maknyos.com.rar.html
    http://www.maknyos.com/tgw5mxi62t1e/BlackSwan.1080p.DarkdiabloZ.part75-maknyos.com.rar.html
    http://www.maknyos.com/lyw9bkb4iqqc/BlackSwan.1080p.DarkdiabloZ.part76-maknyos.com.rar.html
    http://www.maknyos.com/bpenx0sta64o/BlackSwan.1080p.DarkdiabloZ.part77-maknyos.com.rar.html
    http://www.maknyos.com/8uzw0g6xrlr0/BlackSwan.1080p.DarkdiabloZ.part78-maknyos.com.rar.html
    http://www.maknyos.com/n9rqv1suf5s4/BlackSwan.1080p.DarkdiabloZ.part79-maknyos.com.rar.html


    Show Password
    DarkdiabloZ

  11. #5808

    Join Date
    Nov 2007
    Location
    Jakarta
    Posts
    146
    Thank(s)
    1/933
    Rep Power
    0

    Default

    Quote Originally Posted by DarkdiabloZ View Post
    Limitless 2011 Unrated 1080p MKV x264 AC3 DTS NL Subs DM
    Show Information

    Code:
    IMDB: http://www.imdb.com/title/tt1219289/
    Release Title: Limitless 2011 Unrated 1080p MKV x264 AC3 DTS NL Subs DMT
    Director Neil Burger
    
    Cast
    Bradley Cooper...Eddie Morra
    Robert De Niro...Carl Van Loon
    Abbie Cornish...Lindy
    Anna Friel...Mellisa
    
    Genre: Mystery,Sci-Fi,Thriller
    
    General
          Format : Matroska
          File size : 8.42 GiB
          Duration : 1h 45mn
          Overall bit rate : 11.4 Mbps
          Encoded date : UTC 2011-07-03 01:29:47
          Writing application : mkvmerge v2.3.0 ('Freak U') built on Sep  8 2008 18:32:16
          Writing library : libebml v0.7.7 + libmatroska v0.8.1
       Video #1
          ID : 1
          Format : AVC
          Format/Info : Advanced Video Codec
          Format profile : High@L4.1
          Format settings, CABAC : Yes
          Format settings, ReFrames : 5 frames
          Muxing mode : Container profile=Unknown@4.1
          Codec ID : V_MPEG4/ISO/AVC
          Duration : 1h 45mn
          Bit rate : 9 044 Kbps
          Nominal bit rate : 9 271 Kbps
          Width : 1 920 pixels
          Height : 800 pixels
          Display aspect ratio : 2.40:1
          Frame rate : 23.976 fps
          Resolution : 24 bits
          Colorimetry : 4:2:0
          Scan type : Progressive
          Bits/(Pixel*Frame) : 0.246
          Stream size : 6.66 GiB (79%)
          Writing library : x264 core 115 r2008 4c552d8
          Encoding settings : cabac=1 / ref=5 / deblock=1:0:0 / analyse=0x3:0x133 / me=umh / subme=7 / psy=1 / psy_rd=1.00:0.00 / mixed_ref=1 / me_range=16 / chroma_me=1 / trellis=1 / 8x8dct=1 / cqm=0 / deadzone=21,11 / fast_pskip=0 / chroma_qp_offset=-2 / threads=12 / sliced_threads=0 / nr=0 / decimate=1 / interlaced=0 / bluray_compat=0 / constrained_intra=0 / bframes=3 / b_pyramid=2 / b_adapt=2 / b_bias=0 / direct=3 / weightb=1 / open_gop=0 / weightp=2 / keyint=250 / keyint_min=23 / scenecut=40 / intra_refresh=0 / rc_lookahead=50 / rc=2pass / mbtree=1 / bitrate=9271 / ratetol=1.0 / qcomp=0.60 / qpmin=0 / qpmax=69 / qpstep=4 / cplxblur=20.0 / qblur=0.5 / ip_ratio=1.40 / aq=1:1.00
          Language : English
       Audio #2
          ID : 2
          Format : DTS
          Format/Info : Digital Theater Systems
          Codec ID : A_DTS
          Duration : 1h 45mn
          Bit rate mode : Constant
          Bit rate : 1 510 Kbps
          Channel(s) : 6 channels
          Channel positions : Front: L C R, Surround: L R, LFE
          Sampling rate : 48.0 KHz
          Resolution : 24 bits
          Video delay : 11ms
          Stream size : 1.11 GiB (13%)
          Title : English DTS 5.1
          Language : English
       Audio #3
          ID : 3
          Format : AC-3
          Format/Info : Audio Coding 3
          Codec ID : A_AC3
          Duration : 1h 45mn
          Bit rate mode : Constant
          Bit rate : 640 Kbps
          Channel(s) : 6 channels
          Channel positions : Front: L C R, Surround: L R, LFE
          Sampling rate : 48.0 KHz
          Stream size : 483 MiB (6%)
          Title : English DD5.1
          Language : English
       Text #4
          ID : 4
          Format : UTF-8
          Codec ID : S_TEXT/UTF8
          Codec ID/Info : UTF-8 Plain Text
          Title : Nederlands SRT
          Language : Dutch


    Show Link Download

    Show Maknyos

    Code:
    http://www.maknyos.com/epyj55prfnda/Limitless.2011.Unrated.1080p.MKV.DarkdiabloZ.part01-maknyos.com.rar.html
    http://www.maknyos.com/8578plny5j3y/Limitless.2011.Unrated.1080p.MKV.DarkdiabloZ.part02-maknyos.com.rar.html
    http://www.maknyos.com/go49itt20hwg/Limitless.2011.Unrated.1080p.MKV.DarkdiabloZ.part03-maknyos.com.rar.html
    http://www.maknyos.com/qjex93xp4uqj/Limitless.2011.Unrated.1080p.MKV.DarkdiabloZ.part04-maknyos.com.rar.html
    http://www.maknyos.com/tojumcsiypz5/Limitless.2011.Unrated.1080p.MKV.DarkdiabloZ.part05-maknyos.com.rar.html
    http://www.maknyos.com/5gk10y56g1p3/Limitless.2011.Unrated.1080p.MKV.DarkdiabloZ.part06-maknyos.com.rar.html
    http://www.maknyos.com/o47cj9oyogt3/Limitless.2011.Unrated.1080p.MKV.DarkdiabloZ.part07-maknyos.com.rar.html
    http://www.maknyos.com/idbi0v2q0l6w/Limitless.2011.Unrated.1080p.MKV.DarkdiabloZ.part08-maknyos.com.rar.html
    http://www.maknyos.com/tzdfaam554he/Limitless.2011.Unrated.1080p.MKV.DarkdiabloZ.part09-maknyos.com.rar.html
    http://www.maknyos.com/obojz064qlt9/Limitless.2011.Unrated.1080p.MKV.DarkdiabloZ.part10-maknyos.com.rar.html
    http://www.maknyos.com/0ywlw38123mc/Limitless.2011.Unrated.1080p.MKV.DarkdiabloZ.part11-maknyos.com.rar.html
    http://www.maknyos.com/cgszbezjzd78/Limitless.2011.Unrated.1080p.MKV.DarkdiabloZ.part12-maknyos.com.rar.html
    http://www.maknyos.com/ug4le51frrk0/Limitless.2011.Unrated.1080p.MKV.DarkdiabloZ.part13-maknyos.com.rar.html



    Show Password

    DarkdiabloZ
    bro, kyknya nya part 6 sama 13 problem deh, pas extract di kasih tau file-nya corrupt.
    bisa tolong di cek ato di reupload?
    pengen bgt ntn limitless yg 1080p

  12. Who Said Thanks:


  13. #5809

    Join Date
    May 2009
    Location
    West Java
    Posts
    1,051
    Thank(s)
    0/141,200
    Rep Power
    6

    Default

    Quote Originally Posted by Blackwings View Post
    bro, kyknya nya part 6 sama 13 problem deh, pas extract di kasih tau file-nya corrupt.
    bisa tolong di cek ato di reupload?
    pengen bgt ntn limitless yg 1080p
    bisa direpair bro
    repair aja file rar yg corrupt

    gw kira uda pd tau klo file2 gw dah pake repair archieve...
    gw maw bikin tutorialnya bingung maw nulisnya...

  14. #5810

    Join Date
    Dec 2010
    Location
    jakarta
    Posts
    5
    Thank(s)
    0/11
    Rep Power
    0

    Default

    ga bs didwonload gan..storage maintnce...

Page 581 of 583 FirstFirst ... 81481531571577578579580581582583 LastLast

Bookmarks

Posting Permissions

  • You may not post new threads
  • You may not post replies
  • You may not post attachments
  • You may not edit your posts
  •  
Indowebster is proudly powered by PT. Gudang Data Indonesia