Page 583 of 583 FirstFirst ... 83483533573579580581582583
Results 5,821 to 5,830 of 5830

Thread: [Archive] HD Collection | Lokal ONLY | I
http://idws.in/18136

  1. #5821

    Join Date
    May 2011
    Location
    RSJD SMG
    Posts
    750
    Thank(s)
    0/377
    Rep Power
    4

    Default

    Battle of LA yg 720p dari maknyos file not found gan
    Kalo yg dari IDWS rusaknya gk banyak kan?? Thanks.

  2. #5822

    Join Date
    May 2009
    Location
    West Java
    Posts
    1,051
    Thank(s)
    18/141,116
    Rep Power
    6

    Default

    Burlesque 1080p Blu-ray(2010)



    Show Information

    IMDB:
    Code:
    http://www.imdb.com/title/tt1126591/
    Director: Steve Antin
    Genre: Drama, Musical, Romance

    Cast
    Cher ... Tess
    Christina Aguilera ... Ali
    Kristen Bell ... Nikki

    General
    Format : Matroska
    File size : 7.94 GiB
    Duration : 1h 58mn
    Overall bit rate : 9 558 Kbps
    Encoded date : UTC 2011-02-09 15:56:47
    Writing application : mkvmerge v4.0.0 ('The Stars were mine') built on Jun 6 2010 16:18:42
    Writing library : libebml v1.0.0 + libmatroska v1.0.0
    Video #1
    ID : 1
    Format : AVC
    Format/Info : Advanced Video Codec
    Format profile : High@L4.1
    Format settings, CABAC : Yes
    Format settings, ReFrames : 5 frames
    Muxing mode : Container profile=Unknown@4.1
    Codec ID : V_MPEG4/ISO/AVC
    Duration : 1h 58mn
    Bit rate : 7 858 Kbps
    Nominal bit rate : 8 046 Kbps
    Width : 1 920 pixels
    Height : 800 pixels
    Display aspect ratio : 2.40:1
    Frame rate : 23.976 fps
    Resolution : 24 bits
    Colorimetry : 4:2:0
    Scan type : Progressive
    Bits/(Pixel*Frame) : 0.213
    Stream size : 6.52 GiB (82%)
    Writing library : x264 core 112 r1867 22bfd31
    Encoding settings : cabac=1 / ref=5 / deblock=1:0:0 / analyse=0x3:0x133 / me=umh / subme=8 / psy=1 / psy_rd=1.00:0.00 / mixed_ref=1 / me_range=16 / chroma_me=1 / trellis=1 / 8x8dct=1 / cqm=0 / deadzone=21,11 / fast_pskip=1 / chroma_qp_offset=-2 / threads=24 / sliced_threads=0 / nr=0 / decimate=1 / interlaced=0 / constrained_intra=0 / bframes=3 / b_pyramid=2 / b_adapt=1 / b_bias=0 / direct=1 / weightb=1 / open_gop=0 / weightp=1 / keyint=250 / keyint_min=23 / scenecut=40 / intra_refresh=0 / rc=2pass / mbtree=0 / bitrate=8046 / ratetol=1.0 / qcomp=0.60 / qpmin=0 / qpmax=51 / qpstep=4 / cplxblur=20.0 / qblur=0.5 / ip_ratio=1.40 / pb_ratio=1.30 / aq=1:1.00
    Audio #2
    ID : 2
    Format : DTS
    Format/Info : Digital Theater Systems
    Codec ID : A_DTS
    Duration : 1h 58mn
    Bit rate mode : Constant
    Bit rate : 1 510 Kbps
    Channel(s) : 6 channels
    Channel positions : Front: L C R, Surround: L R, LFE
    Sampling rate : 48.0 KHz
    Resolution : 24 bits
    Stream size : 1.25 GiB (16%)
    Text #3
    ID : 3
    Format : UTF-8
    Codec ID : S_TEXT/UTF8
    Codec ID/Info : UTF-8 Plain Text



    Show Maknyos

    Code:
    http://www.maknyos.com/n6ga28hoiruc/burlesque.1080p.DarkdiabloZ.part01-maknyos.com.rar.html
    http://www.maknyos.com/e9xbdui6k1nf/burlesque.1080p.DarkdiabloZ.part02-maknyos.com.rar.html
    http://www.maknyos.com/bm2psstyb5gd/burlesque.1080p.DarkdiabloZ.part03-maknyos.com.rar.html
    http://www.maknyos.com/y342pldqs5ap/burlesque.1080p.DarkdiabloZ.part04-maknyos.com.rar.html
    http://www.maknyos.com/x1lg13vzz5nh/burlesque.1080p.DarkdiabloZ.part05-maknyos.com.rar.html
    http://www.maknyos.com/e5pe43oeolo3/burlesque.1080p.DarkdiabloZ.part06-maknyos.com.rar.html
    http://www.maknyos.com/dm06o5qxyp69/burlesque.1080p.DarkdiabloZ.part07-maknyos.com.rar.html
    http://www.maknyos.com/j2vd4o2ledts/burlesque.1080p.DarkdiabloZ.part08-maknyos.com.rar.html
    http://www.maknyos.com/45jrgbh66i5s/burlesque.1080p.DarkdiabloZ.part09-maknyos.com.rar.html
    http://www.maknyos.com/cpg7smprv5t7/burlesque.1080p.DarkdiabloZ.part10-maknyos.com.rar.html
    http://www.maknyos.com/ta0irb01tu07/burlesque.1080p.DarkdiabloZ.part11-maknyos.com.rar.html
    http://www.maknyos.com/lh5pvtv25wao/burlesque.1080p.DarkdiabloZ.part12-maknyos.com.rar.html
    http://www.maknyos.com/ywrutbzshgtq/burlesque.1080p.DarkdiabloZ.part13-maknyos.com.rar.html
    http://www.maknyos.com/v4t869syscvo/burlesque.1080p.DarkdiabloZ.part14-maknyos.com.rar.html
    http://www.maknyos.com/wj7mfp9611ic/burlesque.1080p.DarkdiabloZ.part15-maknyos.com.rar.html
    http://www.maknyos.com/t8upz196622s/burlesque.1080p.DarkdiabloZ.part16-maknyos.com.rar.html
    http://www.maknyos.com/m7jnp6hzyhor/burlesque.1080p.DarkdiabloZ.part17-maknyos.com.rar.html
    http://www.maknyos.com/wojvk6q2x7ai/burlesque.1080p.DarkdiabloZ.part18-maknyos.com.rar.html
    http://www.maknyos.com/5rjcyrqkepkk/burlesque.1080p.DarkdiabloZ.part19-maknyos.com.rar.html
    http://www.maknyos.com/ysrjnwmkabhh/burlesque.1080p.DarkdiabloZ.part20-maknyos.com.rar.html
    http://www.maknyos.com/ky0zpchhjuq7/burlesque.1080p.DarkdiabloZ.part21-maknyos.com.rar.html
    http://www.maknyos.com/9dt7u360l2ri/burlesque.1080p.DarkdiabloZ.part22-maknyos.com.rar.html
    http://www.maknyos.com/sacwv9a20uwt/burlesque.1080p.DarkdiabloZ.part23-maknyos.com.rar.html
    http://www.maknyos.com/80ijpm9ekv91/burlesque.1080p.DarkdiabloZ.part24-maknyos.com.rar.html
    http://www.maknyos.com/dtbl381yr642/burlesque.1080p.DarkdiabloZ.part25-maknyos.com.rar.html
    http://www.maknyos.com/2s6197asr0la/burlesque.1080p.DarkdiabloZ.part26-maknyos.com.rar.html
    http://www.maknyos.com/99l5v5md1vh5/burlesque.1080p.DarkdiabloZ.part27-maknyos.com.rar.html
    http://www.maknyos.com/q06it0xpsxf2/burlesque.1080p.DarkdiabloZ.part28-maknyos.com.rar.html
    http://www.maknyos.com/9pm2s6yhxdxd/burlesque.1080p.DarkdiabloZ.part29-maknyos.com.rar.html
    http://www.maknyos.com/n8docblu8hpw/burlesque.1080p.DarkdiabloZ.part30-maknyos.com.rar.html
    http://www.maknyos.com/dx5i1kznben7/burlesque.1080p.DarkdiabloZ.part31-maknyos.com.rar.html
    http://www.maknyos.com/v1il2o8px8lz/burlesque.1080p.DarkdiabloZ.part32-maknyos.com.rar.html
    http://www.maknyos.com/uqu8w117r2zf/burlesque.1080p.DarkdiabloZ.part33-maknyos.com.rar.html
    http://www.maknyos.com/71wqfgzuhkk7/burlesque.1080p.DarkdiabloZ.part34-maknyos.com.rar.html
    http://www.maknyos.com/135vog9afrf2/burlesque.1080p.DarkdiabloZ.part35-maknyos.com.rar.html
    http://www.maknyos.com/775mljbmrhpo/burlesque.1080p.DarkdiabloZ.part36-maknyos.com.rar.html
    http://www.maknyos.com/mzk6ml7lq4jx/burlesque.1080p.DarkdiabloZ.part37-maknyos.com.rar.html
    http://www.maknyos.com/oqtw2bj40hdb/burlesque.1080p.DarkdiabloZ.part38-maknyos.com.rar.html
    http://www.maknyos.com/ycjp6bxzs2ol/burlesque.1080p.DarkdiabloZ.part39-maknyos.com.rar.html
    http://www.maknyos.com/m8s2czcghq48/burlesque.1080p.DarkdiabloZ.part40-maknyos.com.rar.html
    http://www.maknyos.com/ohm256lwh1it/burlesque.1080p.DarkdiabloZ.part41-maknyos.com.rar.html
    http://www.maknyos.com/5kmjrqpmwby0/burlesque.1080p.DarkdiabloZ.part42-maknyos.com.rar.html
    http://www.maknyos.com/ol0gvro74b77/burlesque.1080p.DarkdiabloZ.part43-maknyos.com.rar.html
    http://www.maknyos.com/lsoy0nykgojr/burlesque.1080p.DarkdiabloZ.part44-maknyos.com.rar.html
    http://www.maknyos.com/vm7vc73peu0n/burlesque.1080p.DarkdiabloZ.part45-maknyos.com.rar.html


    Show Password
    DarkdiabloZ

  3. #5823

    Join Date
    Jul 2011
    Location
    dimana saja
    Posts
    1,262
    Thank(s)
    192/60,966
    Rep Power
    4

    Default

    Total.Recall.1990.720p.BluRay.x264-HiDt


    Show INFO

    Code:
    General
    Unique ID                        : 253888407039406985260266720180621314411 (0xBF0120E9A2B917F697FD8873598C896B)
    Complete name                    : Total.Recall.1990.720p.BluRay.x264-HiDt.mkv
    Format                           : Matroska
    File size                        : 7.94 GiB
    Duration                         : 1h 53mn
    Overall bit rate                 : 10.0 Mbps
    Encoded date                     : UTC 2010-06-26 08:26:35
    Writing application              : mkvmerge v3.3.0 ('Language') built on Mar 24 2010 14:59:24
    Writing library                  : libebml v0.8.0 + libmatroska v0.9.0
    
    Video
    ID                               : 1
    Format                           : AVC
    Format/Info                      : Advanced Video Codec
    Format profile                   : High@L4.1
    Format settings, CABAC           : Yes
    Format settings, ReFrames        : 8 frames
    Format settings, GOP             : M=1, N=23
    Codec ID                         : V_MPEG4/ISO/AVC
    Duration                         : 1h 53mn
    Bit rate                         : 9 372 Kbps
    Width                            : 1 280 pixels
    Height                           : 692 pixels
    Display aspect ratio             : 1.850
    Frame rate                       : 23.976 fps
    Color space                      : YUV
    Chroma subsampling               : 4:2:0
    Bit depth                        : 8 bits
    Scan type                        : Progressive
    Bits/(Pixel*Frame)               : 0.441
    Stream size                      : 7.28 GiB (92%)
    Title                            : x264
    Writing library                  : x264 core 98 r1649 c54c47d
    Encoding settings                : cabac=1 / ref=8 / deblock=1:-3:-3 / analyse=0x3:0x113 / me=umh / subme=10 / psy=1 / psy_rd=1.00:0.00 / mixed_ref=1 / me_range=64 / chroma_me=1 / trellis=2 / 8x8dct=1 / cqm=0 / deadzone=21,11 / fast_pskip=0 / chroma_qp_offset=-2 / threads=6 / sliced_threads=0 / nr=0 / decimate=0 / interlaced=0 / constrained_intra=0 / bframes=6 / b_pyramid=2 / b_adapt=2 / b_bias=0 / direct=3 / weightb=1 / weightp=2 / keyint=250 / keyint_min=25 / scenecut=40 / intra_refresh=0 / rc_lookahead=120 / rc=2pass / mbtree=1 / bitrate=9372 / ratetol=1.0 / qcomp=0.60 / qpmin=10 / qpmax=51 / qpstep=4 / cplxblur=20.0 / qblur=0.5 / ip_ratio=1.40 / aq=1:0.80
    Language                         : English
    
    Audio
    ID                               : 2
    Format                           : AC-3
    Format/Info                      : Audio Coding 3
    Mode extension                   : CM (complete main)
    Codec ID                         : A_AC3
    Duration                         : 1h 53mn
    Bit rate mode                    : Constant
    Bit rate                         : 640 Kbps
    Channel(s)                       : 6 channels
    Channel positions                : Front: L C R, Side: L R, LFE
    Sampling rate                    : 48.0 KHz
    Bit depth                        : 16 bits
    Compression mode                 : Lossy
    Stream size                      : 520 MiB (6%)
    Title                            : AC3 5.1
    Language                         : English
    
    Text #1
    ID                               : 3
    Format                           : UTF-8
    Codec ID                         : S_TEXT/UTF8
    Codec ID/Info                    : UTF-8 Plain Text
    Language                         : English
    
    Text #2
    ID                               : 4
    Format                           : UTF-8
    Codec ID                         : S_TEXT/UTF8
    Codec ID/Info                    : UTF-8 Plain Text
    Language                         : Bulgarian
    
    Text #3
    ID                               : 5
    Format                           : UTF-8
    Codec ID                         : S_TEXT/UTF8
    Codec ID/Info                    : UTF-8 Plain Text
    Language                         : German
    
    Text #4
    ID                               : 6
    Format                           : UTF-8
    Codec ID                         : S_TEXT/UTF8
    Codec ID/Info                    : UTF-8 Plain Text
    Language                         : French
    
    Text #5
    ID                               : 7
    Format                           : UTF-8
    Codec ID                         : S_TEXT/UTF8
    Codec ID/Info                    : UTF-8 Plain Text
    Language                         : Italian
    
    Text #6
    ID                               : 8
    Format                           : UTF-8
    Codec ID                         : S_TEXT/UTF8
    Codec ID/Info                    : UTF-8 Plain Text
    Language                         : Spanish
    
    Text #7
    ID                               : 9
    Format                           : UTF-8
    Codec ID                         : S_TEXT/UTF8
    Codec ID/Info                    : UTF-8 Plain Text
    Language                         : Portuguese
    
    Text #8
    ID                               : 10
    Format                           : UTF-8
    Codec ID                         : S_TEXT/UTF8
    Codec ID/Info                    : UTF-8 Plain Text
    Language                         : Swedish
    
    Text #9
    ID                               : 11
    Format                           : UTF-8
    Codec ID                         : S_TEXT/UTF8
    Codec ID/Info                    : UTF-8 Plain Text
    Language                         : Finnish
    
    Text #10
    ID                               : 12
    Format                           : UTF-8
    Codec ID                         : S_TEXT/UTF8
    Codec ID/Info                    : UTF-8 Plain Text
    Language                         : Dutch
    
    Text #11
    ID                               : 13
    Format                           : UTF-8
    Codec ID                         : S_TEXT/UTF8
    Codec ID/Info                    : UTF-8 Plain Text
    Language                         : Danish
    
    Text #12
    ID                               : 14
    Format                           : UTF-8
    Codec ID                         : S_TEXT/UTF8
    Codec ID/Info                    : UTF-8 Plain Text
    Language                         : Polish
    
    Text #13
    ID                               : 15
    Format                           : UTF-8
    Codec ID                         : S_TEXT/UTF8
    Codec ID/Info                    : UTF-8 Plain Text
    Language                         : Czech
    
    Text #14
    ID                               : 16
    Format                           : UTF-8
    Codec ID                         : S_TEXT/UTF8
    Codec ID/Info                    : UTF-8 Plain Text
    Language                         : Croatian
    
    Text #15
    ID                               : 17
    Format                           : UTF-8
    Codec ID                         : S_TEXT/UTF8
    Codec ID/Info                    : UTF-8 Plain Text
    Language                         : Hungarian
    
    Text #16
    ID                               : 18
    Format                           : UTF-8
    Codec ID                         : S_TEXT/UTF8
    Codec ID/Info                    : UTF-8 Plain Text
    Language                         : Greek
    
    Text #17
    ID                               : 19
    Format                           : UTF-8
    Codec ID                         : S_TEXT/UTF8
    Codec ID/Info                    : UTF-8 Plain Text
    Language                         : Romanian
    
    Text #18
    ID                               : 20
    Format                           : UTF-8
    Codec ID                         : S_TEXT/UTF8
    Codec ID/Info                    : UTF-8 Plain Text
    Language                         : Turkish
    
    Text #19
    ID                               : 21
    Format                           : UTF-8
    Codec ID                         : S_TEXT/UTF8
    Codec ID/Info                    : UTF-8 Plain Text
    Language                         : Hebrew
    
    Text #20
    ID                               : 22
    Format                           : UTF-8
    Codec ID                         : S_TEXT/UTF8
    Codec ID/Info                    : UTF-8 Plain Text
    Language                         : Arabic
    
    Text #21
    ID                               : 23
    Format                           : UTF-8
    Codec ID                         : S_TEXT/UTF8
    Codec ID/Info                    : UTF-8 Plain Text
    Language                         : Chinese



    You must click 'Thank You' before you can see the data contained here.
    You do not have sufficient rights to see the hidden data contained here.


    Code:
    * Download semua file dan join dengan HJSplit
    Last edited by Semplice; 09-10-2011 at 10:25 AM. Reason: reupload

  4. Who Said Thanks:

    There are too many to display.

  5. #5824

    Join Date
    May 2009
    Location
    WonderLand
    Posts
    12,915
    Thank(s)
    1,308/3,181,542
    Blog Entries
    4
    Rep Power
    19

    Default

    Fast.Five.2011.720p.BluRay.x264-iNFAMOUS.mkv




    Show Information
    Release Group: iNFAMOUS (Scene)

    Release Name: Fast.Five.2011.720p.BluRay.x264-iNFAMOUS
    Release Date: 19-08-2011
    Filename: Fast.Five.2011.720p.BluRay.x264-iNFAMOUS.mkv
    Source: BluRay
    Size: 6.55 GB
    Genre: Action | Crime | Drama

    Video: x264 | 1280�—544 | 5624kbps
    Audio: English | DTS | 1 510 Kbps
    Subs: N/A
    IMDB Rating: 7.6/10 from 46,257 users
    RT Critics: 6.3/10 ( 175 reviews)
    Directed By: Justin Lin
    Starring: Vin Diesel, Paul Walker and Dwayne Johnson


    Show SS





    Show Download Link


    800MB/part
    You must click 'Thank You' before you can see the data contained here.
    You do not have sufficient rights to see the hidden data contained here.

    Last edited by Cailne; 20-08-2011 at 06:32 PM. Reason: done...

  6. Who Said Thanks:

    There are too many to display.

  7. #5825

    Join Date
    Jun 2010
    Location
    karawang
    Posts
    21
    Thank(s)
    6/15
    Rep Power
    0

    Default

    Quote Originally Posted by Semplice View Post
    District.9.2009.720p.BluRay.DTS.x264-METiS
    udah selesai di download gan...
    sukses tanpa ada halangan.

    Thanks Bro Semplice

  8. Who Said Thanks:


  9. #5826

  10. Who Said Thanks:


  11. #5827

    Join Date
    Nov 2009
    Location
    Indonesia
    Posts
    49
    Thank(s)
    3/193
    Rep Power
    0

    Default

    Quote Originally Posted by Semplice View Post
    Scream.4.2011.720p.BluRay.x264-CROSSBOW
    kog part maknyossnya banyak yang gak beres ya alias banyak yang unavailable..kalo donlod yang idws part nya banyak banget

  12. Who Said Thanks:


  13. #5828

    Join Date
    Feb 2010
    Location
    jogja
    Posts
    24,965
    Thank(s)
    11/603,615
    Blog Entries
    5
    Rep Power
    832

    Default

    Quote Originally Posted by AnthraX View Post
    Knight.and.Day.2010.720p.BluRay.DTS.x264-ZMG
    reupload part 12, 18, 19, 30, 31, 32, 34, 35, 38, 39, & 41 done~

    Quote Originally Posted by AnthraX View Post
    Despicable.Me.720p.Bluray.x264-CBGB
    reupload part 18,23,38,40 & 43 done~

  14. #5829

    Join Date
    Jun 2009
    Location
    Indonesia
    Posts
    75
    Thank(s)
    19/57
    Rep Power
    0

    Default

    Quote Originally Posted by smarty View Post
    The Kings Speech (2010) 1080p Bluray


    Code:
    The.Kings.Speech.2010.1080p.BluRay.X264-AMIABLE
    
    Runtime ..: 01:58:28
    Size .....: 7.95 Gb
    Video ....: 1920x1080 (x264 @ 23.976fps)
    Bitrate ..: 8092kbps
    Audio ....: DTS 1509kbps
    Source ...: Retail Region A Blu-Ray
    Lang .....: English 
    Subs .....: English / Spanish 
    IMDB .....: http://www.imdb.com/title/tt1504320/
    Screens ..: $355,450 (USA) (28 November 2010) (4 Screens)
    Rating ...: 8.4/10 (59,772 votes)
    Genre ....: Biography | Drama | History
    Director .: Tom Hooper
    Cast .....: Colin Firth, Geoffrey Rush, Helena Bonham Carter
    Show SS awas BWK




    *** hidden content ***

    Code:
    1. Rename sesuai urutan (tanpa mengubah/menghapus extensi *.rar)
    2. Extract menggunakan Winrar (recomended)
    3. Jika terjadi error saat extract, gunakan menu repair pada Winrar (Recovery record added)
    enjooyyy...
    Yang baik hati boleh donk bagi-bagi ginian

    Show BONUS

    Suka Koleksi Film??? Pake eXtreme Movie Manager Latest Version [Maknyos | MF]
    Best of Video Converter 2011(All FULL) + Comparison[MAKNYOS]
    Best of Video Editing 2011 = CyberLink PowerDirector Ultra64 Latest Version[MAKNYOS]
    All-in-one media player = ArcSoft TotalMedia Theatre Platinum [Maknyos|MF]
    Utk Pecinta/Guru Matematika = SchoolHouse Math Resource Studio [Maknyos|MF]
    Utk Pengguna Setia WinXP = Yamicsoft WinXP Manager Latest Version [Maknyos|MF]
    Kembalikan Data Hilang via Network??? Pake Restorer Ultimate Pro Network [Maknyos|MF]
    Mudahnya Membuat Icon Cantik dg Axialis IconWorkShop Latest Version [MF]
    NetBook Lambat??? Gunakan SysTweak Netbook Optimizer latest Version [Maknyos | MF]
    Remote Manager Super Canggih = NetSupport Manager last Version [MAKNYOS]
    Buat Lembar Soal&Jawaban/ujian/kuisioner Dg Schoolhouse Test 3.1.3.1[Maknyos]
    System Utilities TERLENGKAP = Spotmau PowerSuite | MAKNYOS
    Best of System Utilities 2011 = Advanced System Utilities 3.1.6 + Comparison[MAKNYOS]
    Best Of MP3 Player 2011 = MediaMonkey Gold+Comparison[MAKNYOS]
    Best of Audio Converter 2011(All FULL)+Comparison[MAKNYOS]
    Spyware Doctor with AntiVirus 2011 v8.0.0.623 + Serial [MAKNYOS]
    Animasikan Wajah Anda dg FantaMorph 4.2.6 Deluxe[MAKNYOS]
    Aplikasi Monitor Log dan Disk di Network untuk System Administrator[Maknyos]
    Webroot Antivirus With Spysweeper 2011 7.0.4 + Serial For 2043 Days[MAKNYOS]
    WebCam biasa bs jadi Sistem Pengawasan dg Motion dan Sound detection[MAKNYOS]
    3D-Doctor 4.0.20101105
    kk,file part 4 tidak bisa didownload.bisa direupload tidak kak??

  15. #5830

    Join Date
    Jan 2010
    Location
    Jakarta
    Posts
    32
    Thank(s)
    12/95
    Rep Power
    0

    Default

    [QUOTE=AnthraX;9476480]
    Casino.Royale.UnCut.2006.BluRay.720p.x264.DTS-ESiR

    file 11 dan file 17 ngga bisa di download
    tks

Page 583 of 583 FirstFirst ... 83483533573579580581582583

Bookmarks

Posting Permissions

  • You may not post new threads
  • You may not post replies
  • You may not post attachments
  • You may not edit your posts
  •  
Indowebster is proudly powered by PT. Gudang Data Indonesia