Page 1 of 65 123451151 ... LastLast
Results 1 to 10 of 647

Thread: Prisoners [2013]
http://idws.in/442809

  1. #1

    Join Date
    Oct 2010
    Location
    Milano
    Posts
    1,806
    Thank(s)
    7,116/86,123
    Blog Entries
    2
    Rep Power
    5

    Default Prisoners [2013]

    Prisoners [2013] BluRay




    IMDb Info


    Directed by: Denis Villeneuve
    Produced by: Broderick Johnson, Kira Davis, Andrew A. Kosove, Adam Kolbrenne
    Written by: Aaron Guzikowski
    Starring: Hugh Jackman, Jake Gyllenhaal, Viola Davis, Maria Bello, Terrence Howard, Melissa Leo, Paul Dano
    Studio: Alcon Entertainment
    Distributed by: Warner Bros.
    Release date: September 20, 2013 (USA)
    Running time: 153 minutes
    Genres: Crime | Drama | Thriller
    MPAA: Rated R for disturbing violent content including torture, and language throughout

    Synopsis:
    How far would you go to protect your family? Keller Dover is facing every parent's worst nightmare. His six-year-old daughter, Anna, is missing, together with her young friend, Joy, and as minutes turn to hours, panic sets in. The only lead is a dilapidated RV that had earlier been parked on their street. Heading the investigation, Detective Loki arrests its driver, Alex Jones, but a lack of evidence forces his release. As the police pursue multiple leads and pressure mounts, knowing his child's life is at stake the frantic Dover decides he has no choice but to take matters into his own hands. But just how far will this desperate father go to protect his family?

    Show Official Poster

    Show Trailer



    Prisoners 2013 720p BrRip x264-G3M 861 MB

    Show Info
    Code:
    General
    Format                                   : MPEG-4
    Format profile                           : Base Media
    Codec ID                                 : isom
    File size                                : 861 MiB
    Duration                                 : 2h 33mn
    Overall bit rate                         : 786 Kbps
    Writing application                      : Lavf55.21.100
    
    Video
    ID                                       : 1
    Format                                   : AVC
    Format/Info                              : Advanced Video Codec
    Format profile                           : High@L3.1
    Format settings, CABAC                   : Yes
    Format settings, ReFrames                : 4 frames
    Codec ID                                 : avc1
    Codec ID/Info                            : Advanced Video Coding
    Duration                                 : 2h 33mn
    Bit rate                                 : 700 Kbps
    Width                                    : 1 280 pixels
    Height                                   : 720 pixels
    Display aspect ratio                     : 16:9
    Frame rate mode                          : Variable
    Frame rate                               : 23.976 fps
    Minimum frame rate                       : 23.974 fps
    Maximum frame rate                       : 23.981 fps
    Color space                              : YUV
    Chroma subsampling                       : 4:2:0
    Bit depth                                : 8 bits
    Scan type                                : Progressive
    Bits/(Pixel*Frame)                       : 0.032
    Stream size                              : 766 MiB (89%)
    Writing library                          : x264 core 138 r2358 9e941d1
    Color primaries                          : BT.709-5, BT.1361, IEC 61966-2-4, SMPTE RP177
    Transfer characteristics                 : BT.709-5, BT.1361
    Matrix coefficients                      : BT.709-5, BT.1361, IEC 61966-2-4 709, SMPTE RP177
    
    Audio
    ID                                       : 2
    Format                                   : AAC
    Format/Info                              : Advanced Audio Codec
    Format profile                           : LC
    Codec ID                                 : 40
    Duration                                 : 2h 33mn
    Duration_LastFrame                       : 40ms
    Bit rate mode                            : Constant
    Bit rate                                 : 80.4 Kbps
    Channel(s)                               : 2 channels
    Channel positions                        : Front: L R
    Sampling rate                            : 48.0 KHz
    Compression mode                         : Lossy
    Stream size                              : 88.0 MiB (10%)

    Show SS




    Show Download
    You must click 'Thank You' before you can see the data contained here.
    You do not have sufficient rights to see the hidden data contained here.

    Show CAM version
    Prisoners 2013 CAMRip x264-SAUFi88 526 MB
    Show SS

    Show Download
    You must click 'Thank You' before you can see the data contained here.
    You do not have sufficient rights to see the hidden data contained here.
    --- Subtitle cek di Subscene.com ---


    Prisoners (2013) IDWS hardsub.720p
    by
    West Movie Subbing Team
    Last edited by Iya_an; 19-02-2014 at 10:01 AM. Reason: hardsub
    Reply With Quote Reply With Quote

  2. Who Said Thanks:

    There are too many to display.

  3. #2

    Join Date
    Oct 2010
    Location
    Milano
    Posts
    1,806
    Thank(s)
    129/86,123
    Blog Entries
    2
    Rep Power
    5

    Default

    INDEX



    LUAR
    CAM
    Prisoners 2013 CAM Xvid-CRYS by riankuni
    Prisoners 2013 CAM X264-PLAYNOW by Garnet_IX
    Prisoners (2013) CAM - 650MB - ShAaNiG by riankuni
    PRISONERS (2013) 480p - CAM Encoded Size : 650MB -> Ripped By : ShAaNiG by Robyoby
    Prisoners 2013 CAM XViD - JUSTiCE by Garnet_IX
    TS
    Prisoners 2013 TS Blur MP3 MiLLENiUM by Garnet_IX
    Prisoners 2013 TS XViD-UNiQUE by Garnet_IX
    Prisoners 2013 TS XViD AC3 MURDER by Garnet_IX
    Prisoners (2013) TS 600MB Ganool by riankuni
    Prisoners (2013) TS XViD AC3 MURDER by riankuni
    HDRip
    Prisoners 2013 HDRip XviD-ETRG by Garnet_IX
    WEB-DL
    Prisoners 2013 1080p WEB-DL H264-PublicHD by Garnet_IX
    Prisoners 2013 720p WEB-DL H264-PublicHD
    by Garnet_IX
    Prisoners (2013) 720p WEB-DL by sarasintya
    Prisoners 2013 720p WEB-DL - Micromkv 1.07 GiB by sarasintya
    PRISONERS (2013) 720p - WEB-DL 999MB ShAaNiG by sarasintya
    PRISONERS (2013) 720p WEB-DL 999MB ShAaNiG by ghodhiets
    Prisoners (2013) 720p WEB-DL - 1 GB - Micromkv by ilmawihastika
    Prisoners 2013 720p WEB-DL H264-PublicHD (4.72 GB) by erik_wicora
    PRISONERS (2013) WEB-DL 720p 999MB HDMgATE by Robyoby
    Prisoners (2013) 720p WEB-DL 1 GB nItRo by tofrus
    Prisoners (2013) WEB-DL 720p 5.1CH -DFB 959.9 MB by Zablune
    PRISONERS (2013) WEB-DL 720p 1.1GB scOrp
    by Robyoby
    PRISONERS (2013) WEB-DL 720p 1.1GB scOrp
    by Robyoby
    Prisoners (2013) HQ WEB-DL 720p [1.1 GB] - scOrp by samuel_alex
    Prisoners (2013) 720p WEB-DL 1GB - nItRo by pegasus_idws
    Prisoners (2013) (Ganool) 720p WEB-DL 1080p.WEB-DL.H264-PHD 1,1 GB by fuikisama
    Prisoners (2013) HQ WEB-DL 720p [1.1 GB] - scOrp by samuel_alex
    Prisoners (2013) 720p WEB-DL 1GB - nItRo by pegasus_idws
    Prisoners (2013) 720p WEB-DL x264 Ganool
    by fuikisama
    Prisoners 2013 720p WEB-DL 1GB by V2PX
    PRISONERS (2013) WEB-DL 720p 1.1GB scOrp by Robyoby
    BluRay
    Prisoners 2013 720p BluRay x264 HDMgATE by sarasintya
    Prisoners Bluray 720P (2013) + Subtitle Indonesia by theZer0
    Prisoners 2013 BDRip x264-COCAIN by Garnet_IX
    Prisoners 2013 720p BluRay x264 999 MB HDMGATE by Jahus
    Prisoners 2013 720p BluRay x264-SPARKS by Garnet_IX
    Prisoners (2013) BLURAY 720P (999 MB) HDMgATE by sarasintya
    Prisoners 2013 720p BluRay 1.2GB - Micromkv 1.2GB Arnav by sarasintya
    Prisoners 2013 720p BluRay x264-ArNaV by Garnet_IX
    Prisoners 2013 480p BluRay x264-mSD by Garnet_IX
    Prisoners 2013 720p BluRay - 1.2GB – Micromkv by ilmawihastika
    PRISONERS (2013) 720p - BluRay 1.2GB ShAaNiG by sarasintya
    Prisoners 2013 720p BluRay x264 YIFY by Garnet_IX
    Prisoners (2013) BluRay 720p Ganool by ghodhiets
    Prisoners (2013) 720p BluRayx264.SPARKS - 6.5GB by Robyoby
    PRISONERS (2013) BRRip 720p 987MB YIFY by Robyoby
    Prisoners 2013 PROPER RETAIL 720p x264-scOrp by Garnet_IX
    Prisoners (2013) BRRip 720p [1.2 GB] - Ganool by samuel_alex
    Prisoners (2013) BRRip 720p [1.1 GB] - scOrp by samuel_alex
    PRISONERS scOrp 720p 1.1GB [Single Link] by zpamunzas
    SINGLE LINK Prisoners (2013) BluRay 720p x264 Ganool 1.2GB by feronix478
    Prisoners (2013) BR 720p 1 GB YIFY by Zablune
    Prisoners 2013 1080p BluRay x264 YIFY by Garnet_IX
    PRISONERS (2013) BRRip 720p 1.1GB scOrp by Robyoby
    Prisoners (2013) BRRip 480p – 595MB by ajoem
    Prisoners 2013 720p BluRay DTS x264-PublicHD by Garnet_IX
    SINGLE LINK Prisoners (2013) 1080p BrRip x264 - YIFY 2.05GB
    by feronix478
    PRISONERS (2013) BRRip 720p 1.1GB scOrp by Robyoby
    Prisoners (2013) PROPER.RETAIL 720p Bluray 1.1GB scOrp by Zablune
    PRISONERS (2013) Bluray 720p - zeromovi3.us [860 MB] by zeromovi3.us
    Prisoners 2013 BRRip 720p x264 AAC - PRiSTiNE by deamazing
    Prisoners (2013) 480p BRrip x264-StyLishSaLH by deamazing




    HARAP BACA RULES SEBELUM POSTING

    Show RULES
    West Movies Rules

    Perihal Posting

    1. Bahasa yang diperbolehkan adalah Bahasa Indonesia dan Bahasa Inggris sesuai dengan Rules Baru Mengenai Bahasa
    2. No junk, spam, flame, advertising, double-post/multi-post, one-liner, OOT

      Berikut adalah jenis-jenis postingan yang dilarang:
      • Menanyakan kapan tayang, kapan upload, kapan sub keluar, dan kapan-kapan lainnya. Silahkan cek subscene.com, opensubtitle.com untuk mencari subtitle
      • Membahas format video
      • Meng-quote post2 yg melanggar rules
      • Hanya berisi rekomendasi tanpa disertai alasan.
      • Request re-upload, subtitle, link error (laporkan lsg ke uploadernya)
      • Biasakan cek server status, klo server tp link broken silahkan laporkan.
      • Harap laporkan broken link/file corrupt ke thread pelaporan broken link

      Show Contoh junk
      • Hanya menyampaikan unek2 tentang aktor/artis.
        Contoh: "Si A yg maen pasti seru", "wah ada si B yg main", "ada si C yg main pasti jelek" dll
      • "Thanks", "Thanks for share"
      • "Mantap gan"
      • "Setuju", "Setubuh"
      • "Ijin Sedot", "Download dulu ah", "Cek TKP"
      • "Nunggu DVDRipnya", "Nunggu lokalnya", "Nunggu subnya", dan segala macem menunggu lainnya
      • "Pertamax/Keduax/Ketigax/segala ax"
      • "masuk list donlot, bookmark dulu ah"
      • dan post-post junk lainnya...


    3. Dilarang mengquote image dari postingan yg ingin di reply!
    4. Jika anda ingin post tentang ending movie, gunakan tag spoiler agar yang belum nonton tidak terpengaruh dengan komentar anda.
    5. Untuk Sepuh,MVU,VIP,GK silahkan memberikan Bata (BRP) kepada member yang melanggar.
    6. Melanggar aturan diatas, akan berakibat posting di delete dan member yg bersangkutan akan ditindak sesuai dengan aturan di Perihal Tindakan Pelanggaran.
    Last edited by Kurauto; 04-01-2014 at 12:12 AM.
    Reply With Quote Reply With Quote

  4. Who Said Thanks:

    There are too many to display.

  5. #3

    Join Date
    Jul 2011
    Location
    Pariaman City
    Posts
    3,357
    Thank(s)
    760/329,912
    Rep Power
    7

    Default

    Prisoners 2013 CAM Xvid-CRYS



    IMDB::

    ::::INFO::::

    Code:
    File: Prisoners 2013.avi
    Size: 732247028 bytes (698.33 MiB), duration: 02:25:47, avg.bitrate: 670 kb/s
    Audio: mp3, 48000 Hz, stereo, 128 kb/s
    Video: mpeg4, yuv420p, 720x368, 23.00 fps(r)

    SCREENSHOT::
    http://img.sceper.eu/images/nd3AN.jpg




    Download SINGLE LINK


    You must click 'Thank You' before you can see the data contained here.
    You do not have sufficient rights to see the hidden data contained here.
    Reply With Quote Reply With Quote

  6. Who Said Thanks:

    There are too many to display.

  7. #4
    .:: 小龍女 ::. Garnet_IX's Avatar

    Join Date
    Sep 2010
    Location
    KRB III Merapi
    Posts
    6,040
    Thank(s)
    208/336,419
    Blog Entries
    13
    Rep Power
    11

    Default

    Prisoners 2013 CAM X264-PLAYNOW




    Code:
    Plot: How far would you go to protect your family? Keller Dover is facing every parent’s worst nightmare. His six-year-old daughter, Anna, is missing, together with her young friend, Joy, and as minutes turn to hours, panic sets in. The only lead is a dilapidated RV that had earlier been parked on their street. Heading the investigation, Detective Loki arrests its driver, Alex Jones, but a lack of evidence forces his release. As the police pursue multiple leads and pressure mounts, knowing his child’s life is at stake the frantic Dover decides he has no choice but to take matters into his own hands. But just how far will this desperate father go to protect his family?
    
    http://www.imdb.com/title/tt1392214/
    
    Genre: Crime | Drama | Thriller
    iMDB Rating: 8,3/10 from 11 265 users
    Director: Denis Villeneuve
    Starring: Hugh Jackman, Jake Gyllenhaal, Viola Davis
    Release Title: Prisoners 2013 CAM X264-PLAYNOW
    Release Date: 28.09.2013
    Video…..: X264 CRF 19
    Audio…..: English LC-AAC 2 channels 48.0 KHz
    Resolution: 640×368
    Size……: 759MB
    Runtime…: 2h 26mn
    Source Used: BlackTop


    You must click 'Thank You' before you can see the data contained here.
    You do not have sufficient rights to see the hidden data contained here.
    My personality is who I am. My attitude depends on who you are.
    Reply With Quote Reply With Quote

  8. Who Said Thanks:

    There are too many to display.

  9. #5

    Join Date
    Jul 2011
    Location
    Pariaman City
    Posts
    3,357
    Thank(s)
    278/329,912
    Rep Power
    7

    Default

    Prisoners (2013) CAM - 650MB - ShAaNiG




    INFORMATION:
    IMDB Ratings : 8.3/10 >> 12,318 Votes >> Top 250: #N/A
    http://www.imdb.com/title/tt1392214/

    STORYLiNE:
    How far would you go to protect your family? Keller Dover is facing every parent's worst nightmare. His six-year-old daughter, Anna, is missing, together with her young friend, Joy, and as minutes turn to hours, panic sets in. The only lead is a dilapidated RV that had earlier been parked on their street. Heading the investigation, Detective Loki arrests its driver, Alex Jones, but a lack of evidence forces his release. As the police pursue multiple leads and pressure mounts, knowing his child's life is at stake the frantic Dover decides he has no choice but to take matters into his own hands. But just how far will this desperate father go to protect his family?


    RELEASENOTES:

    [TITLE]:........................[ Prisoners
    [DIRECTOR]:.....................[ Denis Villeneuve
    [RELEASE DATE]:.................[ 20 September 2013 (USA)
    [GENRE]:........................[ Crime | Drama | Thriller
    [NO OF CDs]:....................[ 1
    [FORMAT]:.......................[ Matroska (MKV)
    [HDTV SUPPORT]:.................[ Yes
    [FILE SIZE]:....................[ 650MB
    [RESOLUTION]:...................[ 720x370
    [FRAME RATE]:...................[ 29.970 fps
    [LANGUAGE]:.....................[ English
    [SUBTITLES]:....................[ NONE
    [RUNTIME]:......................[ 02:25:47
    [ENCODER]:......................[ ShAaNiG
    [SOURCE]:.......................[ CAM-UNiQUE




    Download SINGLE LINK


    You must click 'Thank You' before you can see the data contained here.
    You do not have sufficient rights to see the hidden data contained here.
    Reply With Quote Reply With Quote

  10. Who Said Thanks:

    There are too many to display.

  11. #6

    Join Date
    Aug 2011
    Location
    Area Khusus
    Posts
    3,082
    Thank(s)
    13/56,069
    Blog Entries
    6
    Rep Power
    5

    Default

    PRISONERS (2013) 480p - CAM
    Encoded Size : 650MB -> Ripped By : ShAaNiG


    Code:
    Uploadboy ( kenceng + resume )
    
    http://uploadboy.com/t8sadbbb30mn.html
    
    4Upfiles ( kenceng + resume )
    
    http://4upfiles.com/tyx2ow2l7qw1
    
    Kingfiles ( kenceng + resume )
    
    http://www.kingfiles.net/nreoj3aaildj/cinemarvp.prsnrs.cam.mkv
    
    Sinhro ( kenceng + resume )
    
    http://sinhro.net/erw03ze1p9mv/cinemarvp.prsnrs.cam.mkv.html
    Last edited by Robyoby; 15-11-2013 at 09:26 PM.
    Reply With Quote Reply With Quote

  12. #7
    .:: 小龍女 ::. Garnet_IX's Avatar

    Join Date
    Sep 2010
    Location
    KRB III Merapi
    Posts
    6,040
    Thank(s)
    115/336,419
    Blog Entries
    13
    Rep Power
    11

    Default

    Prisoners 2013 CAM XViD - JUSTiCE




    Code:
    Prisoners 2013 CAM XViD - JUSTiCE
    
    
    
    SOURCE : VIDEO - BLACKTOPS THXS   AUDIO - BLACKTOPS THXS
    
    
    Video and audio both cleaned and given justice.
    Check sample and see.....
    
    
    Ok first off thx too blacktops for releasing this for us lot.....
    Video was nice but colours were off,there was interlace issues,the video was slightly pulled down sloping right to left and also a slight lean on the sides.
    Audio was decent but oos for me,also the right channel is way louder than the left,so needed some fixing.
    
    
    WORKDONE -
    
    First i made a script in megui and then dropped that into vdub ....from here i used the quad filter and pulled up the bottom left corner to level up the video and then i also
    pulled in the left side a touch.Needed to then crop the black borders,so yeah lose a few pixels on the bottom and side.
    Now i resized it to a better AR and then went too town on this changing the rgb colours,brightness,contrast,sat,intes,sharpness,hq smoother... you name it lol.
    The interlace issue were a issue as it looks like they are encoded into the video and a normal deinterlace doesn't quite remove it all so went for the blend fields....this makes it
    smoother,but cleaner so thats why i had to add some sharpness back into.
    Oh for got too say i also blurred the watermark in the bottom right corner ....
    
    Audio stripped and dropped into AA and fixed the channel levels before remastering it,changing the EQ bands and running a light noise filter.....then just resynced and remuxed back
    too our rip.
    
    Overall for a cam ...v8 a6.5 m7.
    
    Yes will be doing battle of the year using blacktops source,but more than likely be tomorrow now ;-)
    
    
    
    
    Video
    ID                                       : 0
    Format                                   : MPEG-4 Visual
    Format profile                           : Advanced Simple@L5
    Format settings, BVOP                    : 2
    Format settings, QPel                    : No
    Format settings, GMC                     : No warppoints
    Format settings, Matrix                  : Default (MPEG)
    Muxing mode                              : Packed bitstream
    Codec ID                                 : XVID
    Codec ID/Hint                            : XviD
    Duration                                 : 2h 25mn
    Bit rate                                 : 1 876 Kbps
    Width                                    : 720 pixels
    Height                                   : 384 pixels
    Display aspect ratio                     : 1.85:1
    Frame rate                               : 29.970 fps
    Color space                              : YUV
    Chroma subsampling                       : 4:2:0
    Bit depth                                : 8 bits
    Scan type                                : Progressive
    Compression mode                         : Lossy
    Bits/(Pixel*Frame)                       : 0.226
    Stream size                              : 1.91 GiB (93%)
    Writing library                          : XviD 64
    
    Audio
    ID                                       : 1
    Format                                   : MPEG Audio
    Format version                           : Version 1
    Format profile                           : Layer 3
    Mode                                     : Joint stereo
    Mode extension                           : MS Stereo
    Codec ID                                 : 55
    Codec ID/Hint                            : MP3
    Duration                                 : 2h 25mn
    Bit rate mode                            : Constant
    Bit rate                                 : 128 Kbps
    Channel(s)                               : 2 channels
    Sampling rate                            : 48.0 KHz
    Compression mode                         : Lossy
    Delay relative to video                  : 4ms
    Stream size                              : 133 MiB (6%)
    Alignment                                : Split accross interleaves
    Interleave, duration                     : 33 ms (1.00 video frame)
    Interleave, preload duration             : 500 ms




    You must click 'Thank You' before you can see the data contained here.
    You do not have sufficient rights to see the hidden data contained here.
    My personality is who I am. My attitude depends on who you are.
    Reply With Quote Reply With Quote

  13. Who Said Thanks:

    There are too many to display.

  14. #8

    Join Date
    Aug 2010
    Location
    Depok
    Posts
    767
    Thank(s)
    19/8,156
    Rep Power
    4

    Default

    Kemarin Midnight nonton ini. Hmmm...
    Bisa dibilang satu genre sama film kaya Mystic River atau Gone baby Gone. Alurnya lambat tapi sanggup bikin penontonnya betah nontonin selama 140 menit.
    bercerita tentang misteri penculikan dua orang anak perempuan, disini si detektif berusaha nemuin pelakunya tapi si ayah korban yang ngrasa usaha polisi begitu lambat ngambil tindakan sendiri buat cari tahu dimana putrinya.

    pas penonton uda dibikin flat sama alur yang lambat tiba"dibikin shock pas adegan
    Show jangan buka kalo belum nonton
    Si detektif ke rumah pastur trus dia nemuin mayat laki-laki yang diiket di kursi didalem basement rumahnya

    Langsung deh penonton kaya 'dibangunin' buat tetep fokus nonton.
    Harus teliti nontonnya. Gue yakin banget penonton bakal bikin prediksi sendiri tentang siapa si penculiknya, tapi gak nyangka juga kalo 'dia' yang nyulik.
    Oiya entah kenapa unsur Religinya lumayan ditonjolin di film ini.

    Pemain kelas A dan akting yang uda pasti kereeeen, bikin emosi di film ini dapet banget.
    yah 4/5 deh buat film ini
    Last edited by bolehmbak; 06-10-2013 at 03:34 PM.
    Reply With Quote Reply With Quote

  15. #9

    Join Date
    Jan 2011
    Location
    Bekasi
    Posts
    53
    Thank(s)
    1/6
    Rep Power
    0

    Default

    Ini film watak yah kayanya, pemainnya 'serius-serius' semua. Wajib tonton ini sih.
    Reply With Quote Reply With Quote

  16. Who Said Thanks:


  17. #10

    Join Date
    Jan 2012
    Location
    jakarta
    Posts
    62
    Thank(s)
    3/28
    Rep Power
    0

    Default

    ane udah liat midnaitnya kemaren gan, sumpah bikin deg2an,gregetan jadi kebawa emosi harus ikutan mikir siapa dalangnya, semuanya berhubungan.
    liat aktingnya hugh jackman,lupa kalo dia adalah wolverine..:D
    2,5 jam kaya nonton lukisan harus dicermati setiap detiknya..hahahhha
    endingnya juga dibiarkan begitu saja, jadi penonton menebak-nebak sendiri apa yang terjadi..mantep
    Reply With Quote Reply With Quote

  18. Who Said Thanks:


Page 1 of 65 123451151 ... LastLast

Bookmarks

Posting Permissions

  • You may not post new threads
  • You may not post replies
  • You may not post attachments
  • You may not edit your posts
  •  
Indowebster is proudly powered by PT. Gudang Data Indonesia